<?xml version="1.0" standalone="no"?>
<!DOCTYPE svg PUBLIC "-//W3C//DTD SVG 1.1//EN" "http://www.w3.org/Graphics/SVG/1.1/DTD/svg11.dtd" >
<svg xmlns="http://www.w3.org/2000/svg">
<metadata><json><![CDATA[{
	"author": "LineIcons",
	"description": "Handcrafted Line Icons for Modern User Interfaces of Web, Android, iOS, and Desktop App Projects",
	"version": "2.0",
	"copyright": "https://lineicons.com/license/",
	"license": "Creative Commons",
	"url": "https://lineicons.com/"
}]]></json></metadata>
<defs>
  <font id="LineIcons" horiz-adv-x="256">
    <font-face font-family="LineIcons"
      units-per-em="144" ascent="128"
      descent="16" />
    <missing-glyph horiz-adv-x="0" />
    <glyph glyph-name="500px"
      unicode="&#xEA02;"
      horiz-adv-x="144" d="M80.55 112.475C72 112.475 63.225 110.675 56.475 107.975C55.8 107.75 55.35 107.075 55.35 106.4C55.35 105.725 55.575 104.6 56.025 103.475C56.475 102.35 57.6 99.65 59.625 100.55C66.375 103.025 73.8 104.6 80.55 104.6C88.2 104.6 95.625 103.025 102.825 100.1C108.45 97.625 113.625 94.25 119.475 89.3C119.925 88.85 120.375 88.85 120.825 88.85C121.95 88.85 123.075 89.975 123.975 90.875C125.55 92.675 126.45 94.025 125.1 95.375C119.7 100.55 113.625 104.375 106.2 107.525C97.875 110.9 89.325 112.475 80.55 112.475zM35.55 33.275S36.225 31.025 36.675 30.125C39.15 24.5 42.525 19.55 46.8 15.05C51.075 10.775 56.25 7.4 61.875 4.925C67.725 2.45 73.8 1.325 80.325 1.325S92.925 2.675 98.775 4.925C104.4 7.4 109.35 10.775 113.85 15.05C118.125 19.325 121.5 24.5 123.975 30.125C126.45 35.975 127.575 42.05 127.575 48.575S126.225 61.175 123.975 67.025C121.5 72.65 118.125 77.6 113.85 82.1C109.575 86.375 104.4 89.75 98.775 92.225C92.925 94.7 86.85 95.825 80.325 95.825C73.8 95.825 67.5 94.475 61.65 92.225C57.15 90.2 49.275 85.25 44.775 80.525V119.225H110.025C112.5 119.225 112.5 122.6 112.5 123.725S112.5 128.225 110.025 128.225L39.375 128C37.35 128 36.225 126.425 36.225 124.85V70.175C36.225 68.375 38.475 67.25 40.5 66.8C44.55 65.9 45.45 67.25 46.35 68.6L46.575 68.825C48.15 71.075 52.65 75.8 52.65 75.8C59.85 83 69.525 87.05 79.875 87.05S99.9 83 107.1 75.8C114.3 68.6 118.35 58.925 118.35 48.575S114.3 28.55 107.1 21.35C99.9 14.15 90 10.1 79.65 10.1C72.675 10.1 65.925 11.9 60.3 15.5V48.8C60.3 53.3 62.325 58.025 65.475 61.625C69.075 65.675 74.25 68.15 79.65 68.15S90 66.125 93.825 62.525C97.425 58.925 99.45 53.975 99.45 48.8C99.45 37.775 90.675 29 79.65 29C77.4 29 73.575 29.9 73.35 29.9C71.1 30.575 70.2 27.425 69.75 26.525C68.625 22.475 70.425 21.8 70.65 21.575C74.25 20.45 76.5 20.225 79.65 20.225C95.4 20.225 108.225 33.05 108.225 48.8C108.225 64.325 95.4 77.15 79.65 77.15C72 77.15 64.8 74.225 59.4 68.825C54.225 63.65 51.3 56.9 51.3 50.15V22.7C48.375 26.075 45.45 31.025 43.425 36.2C42.75 38.225 40.95 37.775 38.7 37.1C38.025 36.65 34.875 35.75 35.55 33.275zM126 8.3C124.875 9.425 124.2 9.875 123.3 10.1C122.625 10.325 121.95 10.1 121.275 9.65L120.825 9.2C115.65 4.025 109.575 -0.25 102.825 -2.95C95.85 -5.875 88.425 -7.45 80.55 -7.45C72.9 -7.45 65.475 -5.875 58.275 -2.95C51.525 -0.025 45.45 4.025 40.275 9.2C34.875 14.6 30.825 20.675 28.125 27.2C25.65 33.5 24.75 38.45 24.525 40.025V40.475C24.075 42.275 22.5 42.5 20.025 42.05C18.9 41.825 15.975 41.375 16.2 39.125C17.1 33.95 18.45 28.775 20.475 24.05C23.85 16.175 28.575 9.2 34.425 3.35C40.5 -2.725 47.475 -7.45 55.125 -10.6C63.225 -13.975 71.775 -15.775 80.55 -15.775S97.875 -13.975 105.975 -10.6C113.85 -7.225 120.825 -2.5 126.675 3.35L127.125 3.8C128.025 4.475 128.7 5.6 126 8.3zM69.075 41.15C69.075 40.25 69.975 39.35 70.425 38.9L70.65 38.675C71.55 37.775 72.45 37.325 73.125 37.325C73.8 37.325 74.25 37.55 74.25 37.775C74.7 38.225 79.2 42.725 79.425 43.175L84.375 38.225C84.825 37.775 85.275 37.55 85.95 37.325C86.85 37.325 87.525 37.775 88.425 38.675C90.675 40.925 89.55 42.05 88.875 42.725L83.925 47.675L89.1 53.075C90.225 54.425 89.325 55.55 88.2 56.675C86.625 58.25 85.275 58.475 84.375 57.8L79.2 52.625L74.25 57.8C74.025 58.025 73.575 58.25 73.125 58.25C72.45 58.25 71.55 57.8 70.65 56.9C69.075 55.325 68.625 54.2 69.525 53.3L74.7 48.125L69.75 42.5C69.3 42.05 69.075 41.6 69.075 41.15z" />
    <glyph glyph-name="add-files"
      unicode="&#xEA03;"
      horiz-adv-x="144" d="M54 67.925H65.925V56C65.925 52.4 68.4 49.925 72 49.925S78.075 52.4 78.075 56V67.925H90C93.6 67.925 96.075 70.4 96.075 74S93.6 80.075 90 80.075H78.075V92C78.075 95.6 75.6 98.075 72 98.075S65.925 95.6 65.925 92V80.075H54C50.4 80.075 47.925 77.6 47.925 74S50.4 67.925 54 67.925zM117.675 128H26.325C21.6 128 18 124.4 18 119.675V37.55C18 33.95 19.8 30.35 22.275 27.875L64.8 -12.4C67.275 -14.875 70.875 -16 73.8 -16H117.675C122.4 -16 126 -12.4 126 -7.675V119.675C126 124.4 122.4 128 117.675 128zM41.4 26.075H64.125C64.8 26.075 65.25 25.4 65.25 24.95V3.35L41.4 26.075zM114.075 -4.075H78.075V24.725C78.075 31.925 72 38 64.8 38H29.925V116.075H113.85V-4.075z" />
    <glyph glyph-name="alarm-clock"
      unicode="&#xEA04;"
      horiz-adv-x="144" d="M126.675 76.925C130.275 81.2 132.075 86.6 132.075 92C132.075 105.275 121.275 116.075 108 116.075C100.8 116.075 93.6 112.475 89.325 107.075C85.725 108.2 82.125 108.875 77.85 109.55V116.075H83.925C87.525 116.075 90 118.55 90 122.15S87.525 128 83.925 128H60.075C56.475 128 54 125.525 54 121.925S56.475 115.85 60.075 115.85H66.15V109.325C62.55 108.65 58.275 108.2 54.675 106.85C50.4 112.25 43.2 115.85 36 115.85C22.725 116.075 11.925 105.275 11.925 92C11.925 86.6 13.725 81.2 17.325 76.925C11.925 67.925 9.45 57.8 9.45 47C9.45 12.125 37.125 -16 71.775 -16S134.1 12.125 134.1 47C134.325 57.8 132.075 67.925 126.675 76.925zM108 103.925C114.525 103.925 119.925 98.525 119.925 92C119.925 90.875 119.25 89.075 119.25 87.725C114.525 93.8 108.45 98.525 101.925 102.125C103.275 103.475 105.525 103.925 108 103.925zM24.075 92C24.075 98.525 29.475 103.925 36 103.925C38.475 103.925 40.725 103.25 42.525 102.125C36 98.525 29.925 93.8 24.525 87.725C24.525 89.075 24.075 90.875 24.075 92zM72 -4.075C43.875 -4.075 21.6 18.875 21.6 47S44.325 98.075 72 98.075C100.125 98.075 122.4 75.35 122.4 47S100.125 -4.075 72 -4.075zM96.075 49.925H78.075V74C78.075 77.6 75.6 80.075 72 80.075S65.925 77.6 65.925 74V49.925C62.325 49.925 59.85 47.45 59.85 43.85S62.325 37.775 65.925 37.775C65.925 34.175 68.4 31.7 72 31.7S78.075 34.175 78.075 37.775H96.075C99.675 37.775 102.15 40.25 102.15 43.85C101.925 47.675 99.675 49.925 96.075 49.925z" />
    <glyph glyph-name="alarm"
      unicode="&#xEA05;"
      horiz-adv-x="144" d="M132.075 8.075L127.35 15.275C126.675 16.4 126.225 17.75 126.225 18.875V66.8C126.225 80.525 120.15 93.125 109.35 102.8C100.8 111.125 90 116.075 78.075 117.2V121.925C78.075 125.525 75.6 128 72 128S65.925 125.525 65.925 121.925V117.2H65.25C38.475 114.275 18 92 18 66.125V19.325C18 16.85 17.775 16.85 17.1 15.5L12.6 7.85C10.8 5.375 10.8 1.775 12.6 -0.475C13.725 -2.95 16.875 -4.075 19.125 -4.075H65.925V-10.15C65.925 -13.525 68.625 -16.225 71.775 -16.225C75.15 -16.225 77.85 -13.525 77.85 -10.15V-4.075H124.65C127.575 -4.075 130.05 -2.95 131.85 -0.475C133.2 2.675 133.2 5.6 132.075 8.075zM26.325 8.075L27.45 9.875C28.575 12.35 29.925 15.275 29.925 18.2V66.125C29.925 85.925 45.45 102.8 66.6 105.05C79.2 106.175 91.8 102.575 101.475 94.25C109.8 87.05 114.075 77.375 114.075 66.575V18.65C114.075 15.05 115.2 11.45 117 8.525L117.675 7.85H26.325z" />
    <glyph glyph-name="airbnb"
      unicode="&#xEA06;"
      horiz-adv-x="144" d="M72 18.425C63.9 28.55 59.175 37.55 57.6 45.2C50.4 73.55 93.825 73.55 86.625 45.2C84.825 37.325 79.875 28.325 72 18.425zM116.325 -5.2C102.825 -11.05 89.325 -1.6 78.075 11C111.375 52.85 92.925 75.35 72 75.35C54.45 75.35 44.55 60.5 48.375 42.95C50.625 33.5 56.475 22.925 65.925 11C55.575 -0.475 46.575 -5.875 38.475 -6.55C22.5 -9.025 9.9 6.5 15.75 22.7C20.7 35.3 51.75 96.95 53.1 100.325C58.05 110 61.2 118.775 72 118.775C82.35 118.775 85.95 110.45 91.35 99.425C103.05 76.925 120.15 42.5 128.25 22.7C132.525 12.125 127.8 -0.25 116.325 -5.2zM131.625 38.675C90 126.65 87.75 128 72 128C57.375 128 51.075 117.875 44.775 104.6C10.575 36.425 7.425 26.75 6.975 25.85C-1.125 3.575 15.75 -16 35.775 -16C42.75 -16 55.35 -13.975 72 4.025C90.9 -16.45 104.625 -16 108.225 -16C128.475 -16 145.125 3.575 137.025 25.85C137.025 27.2 131.625 38.45 131.625 38.675z" />
    <glyph glyph-name="adobe"
      unicode="&#xEA07;"
      horiz-adv-x="144" d="M90.675 116.075H144V-3.85L90.675 116.075zM53.325 116.075H0V-3.85L53.325 116.075zM72 71.525L105.525 -4.075H82.8L73.125 20H48.6L72 71.525z" />
    <glyph glyph-name="amazon-pay"
      unicode="&#xEA08;"
      horiz-adv-x="144" d="M0 39.575C0.45 40.475 1.125 40.7 2.25 40.25C4.725 38.9 7.2 37.55 9.675 36.425C19.125 31.7 29.25 28.1 39.6 25.625C44.55 24.5 49.5 23.6 54.45 22.925C61.875 22.025 69.3 21.575 76.725 21.8C80.775 21.8 84.825 22.25 89.1 22.7C102.375 24.275 115.2 27.65 127.575 32.825C128.25 33.05 128.925 33.275 129.825 33.05C131.4 32.6 131.85 31.025 130.725 29.675C130.05 29 129.375 28.55 128.475 27.875C121.275 22.925 113.4 19.325 105.075 16.625C99.225 14.825 93.375 13.475 87.3 12.575C83.25 11.9 78.975 11.45 74.7 11.45H65.925C61.875 11.675 58.05 12.125 54 12.8C47.475 13.925 41.175 15.5 35.1 17.75C22.5 22.25 10.8 29.225 0.9 38.225C0.45 38.675 0.225 39.125 -0.225 39.575H0zM37.125 101L36 100.775C32.85 100.325 29.7 99.2 27 97.175C26.325 96.725 25.875 96.275 25.425 95.825V96.05C25.425 96.725 25.2 97.4 25.2 98.075C24.975 99.2 24.525 99.65 23.4 99.65H20.7C19.125 99.65 18.675 99.425 18.675 97.625V47.675C18.675 47 19.125 46.55 19.8 46.55H24.75C25.425 46.55 25.875 47 25.875 47.675V65.45C26.1 65.225 26.325 65.225 26.325 65C30.6 61.4 35.325 60.275 40.725 61.4C45.45 62.3 48.825 65.225 51.075 69.725C52.65 73.1 53.325 76.475 53.55 80.075C53.775 84.125 53.325 87.95 51.75 91.775C49.725 96.5 46.35 99.425 41.4 100.55C40.725 100.775 39.825 100.775 39.15 101H37.125zM26.1 91.1C26.1 91.325 26.325 91.775 26.55 91.775C29.7 94.025 33.3 95.15 37.35 94.925C40.95 94.7 43.65 92.9 45.225 88.85C46.125 86.375 46.35 83.675 46.35 80.975C46.35 78.5 46.125 76.025 45.45 73.775C43.875 68.825 40.275 66.8 35.325 67.025C31.95 67.25 29.25 68.375 26.55 70.4C26.325 70.625 26.1 70.85 26.1 71.075V80.975V91.1zM74.475 101H73.8C71.55 101 69.3 100.55 67.05 100.1C65.7 99.65 64.125 99.2 62.775 98.75C61.875 98.525 61.425 97.85 61.425 96.95V94.7C61.425 93.575 61.875 93.35 63 93.575C64.8 94.025 66.6 94.475 68.625 94.925C71.55 95.375 74.475 95.6 77.4 95.15C78.975 94.925 80.325 94.475 81.45 93.125C82.35 92 82.575 90.65 82.8 89.3V83.225H82.575C80.1 83.9 77.625 84.125 74.925 84.35C72.225 84.575 69.525 84.35 67.05 83.45C63.9 82.325 61.65 80.525 60.075 77.6C58.95 75.35 58.725 72.875 59.175 70.4C59.625 67.025 61.2 64.55 64.125 62.975C66.825 61.4 69.975 61.175 73.125 61.625C76.725 62.075 79.875 63.65 82.575 65.9C82.8 65.9 82.8 66.125 83.025 66.125C83.25 65.225 83.25 64.325 83.475 63.425C83.7 62.75 84.15 62.3 84.825 62.3H88.65C89.325 62.3 89.775 62.75 89.775 63.425V88.85C89.775 89.975 89.775 90.875 89.55 92C89.1 95.15 87.75 97.625 85.05 99.2C83.475 100.1 81.675 100.55 79.875 100.775C78.975 101 78.0750000000001 101 77.4 101H74.475zM82.8 70.85C82.8 70.625 82.575 70.4 82.35 70.175C79.65 68.375 76.725 67.025 73.575 66.575C72.225 66.35 70.875 66.575 69.525 67.025C68.175 67.475 67.05 68.6 66.6 70.175C66.15 71.75 66.15 73.325 66.6 74.675C67.275 76.7 68.625 77.825 70.425 78.275C72.225 78.95 74.25 78.95 76.275 78.725C78.3 78.5 80.1 78.275 82.125 77.825C82.575 77.825 82.575 77.6 82.575 77.15V73.775C82.8 73.1 82.8 71.975 82.8 70.85zM144 40.475C143.775 41.6 142.875 42.05 141.75 42.5C140.175 42.95 138.375 43.4 136.8 43.4C133.65 43.625 130.5 43.625 127.575 42.95C124.2 42.275 121.05 41.15 118.125 39.35C117.675 39.125 117.45 38.9 117.225 38.45C117 38.225 117 37.775 117 37.55C117 37.1 117.45 37.1 117.9 37.1H118.35L123.75 37.775C126.45 38 129.15 38.225 131.85 38C132.975 38 134.1 37.775 135.225 37.325C136.35 37.1 137.025 36.2 137.025 34.85C137.025 33.05 136.8 31.25 136.125 29.45C135.225 25.85 133.875 22.25 132.3 18.875C132.3 18.65 132.075 18.425 132.075 18.2C131.85 17.525 132.3 17.075 132.975 17.3C133.425 17.3 133.875 17.525 134.1 17.975C135.225 18.875 136.125 20 137.025 21.125C139.95 24.95 141.75 29.45 142.875 34.175C143.1 35.075 143.1 35.975 143.325 36.65L144 40.475zM112.95 69.5C109.8 77.825 106.875 86.375 103.725 94.7C103.275 96.05 102.825 97.4 102.15 98.75C101.925 99.425 101.475 99.875 100.575 99.875H95.175C94.5 99.875 94.275 99.425 94.5 98.75C94.725 98.3 94.725 97.85 94.95 97.4C99.675 85.925 104.175 74.45 108.9 63.2C109.35 62.3 109.35 61.4 108.9 60.5C108.225 58.7 107.55 56.9 106.65 55.325C105.975 53.75 104.85 52.625 103.05 52.175C102.15 51.5 100.8 51.5 99.675 51.5C99 51.5 98.55 51.725 97.875 51.725C96.975 51.725 96.75 51.5 96.75 50.6V48.35C96.75 47 97.2 46.55 98.55 46.325C99.9 46.1 101.25 45.875 102.6 45.875C106.65 45.875 109.8 47.45 111.825 50.825C112.725 52.175 113.4 53.75 114.075 55.1C119.7 69.275 125.1 83.225 130.725 97.4C130.95 97.85 130.95 98.3 131.175 98.75C131.175 99.425 130.95 99.875 130.275 99.875H125.55C124.65 99.875 123.975 99.425 123.75 98.75C123.525 98.525 123.525 98.075 123.3 97.85L114.975 74C114.3 72.2 113.85 70.625 113.175 68.825C112.95 69.05 112.95 69.275 112.95 69.5z" />
    <glyph glyph-name="amazon"
      unicode="&#xEA09;"
      horiz-adv-x="144" d="M55.575 42.275C58.5 38.9 62.1 37.325 66.15 37.325C66.6 37.325 67.275 37.325 68.4 37.55L69.3 37.775C74.025 38.9 77.85 42.05 80.325 46.55C81.45 48.575 82.35 50.6 82.8 52.625C83.25 54.425 83.7 56.225 83.7 58.025V71.525H78.075C72.9 71.525 69.075 71.075 66.6 70.4C57.375 67.925 52.425 61.625 52.425 52.85C51.975 48.575 53.1 44.975 55.575 42.275zM69.075 59.375C69.525 59.6 70.425 59.6 72 59.825V57.8C72 57.125 71.775 56.225 71.55 55.1C71.325 54.2 70.875 53.075 70.2 51.95C69.075 49.925 67.725 49.25 66.825 48.8C66.6 48.8 66.15 48.8 65.7 48.575C65.025 48.575 64.575 48.8 64.125 49.475C63.45 50.375 63.225 51.275 63.225 52.625C63.225 55.775 64.125 58.025 69.075 59.375zM33.525 71.975C29.475 66.35 27.675 59.6 27.675 51.725C27.675 41.6 30.825 33.725 36.675 28.325C42.525 22.925 50.175 20 59.175 20C64.575 20 69.3 20.675 73.125 21.8C77.85 23.15 82.575 25.85 87.075 29.675C87.525 29.225 87.75 28.775 88.2 28.55L88.65 28.1L90.45 26.3C91.575 25.175 92.7 24.05 94.275 22.7L94.725 22.25L95.4 22.025C96.75 21.35 98.325 20.9 99.9 20.9C101.925 20.9 103.725 21.575 105.525 22.7C105.975 23.15 106.875 23.6 109.35 25.85C111.6 27.65 114.75 30.35 118.8 33.725C121.05 35.3 122.4 37.55 122.4 40.25C122.4 41.825 121.725 43.625 120.825 45.425L120.375 46.1C118.8 48.125 117.675 49.475 117 50.6C117 50.6 116.55 51.275 115.875 53.3C114.975 54.65 114.75 56.225 114.75 58.25V93.125C114.75 94.7 114.75 96.275 114.525 97.175C114.3 100.325 114.075 101.45 113.85 102.125L113.625 102.575L112.95 105.275L112.5 106.85C112.05 108.2 111.6 109.325 110.925 110.675C110.25 111.575 109.575 112.7 108.675 114.05C107.55 115.4 106.65 116.75 105.3 117.875L105.075 118.1C97.875 124.625 87.75 128 75.15 128H71.1C61.425 127.55 52.875 125.075 45.45 120.35C37.8 115.4 32.85 107.975 30.825 98.3C30.375 97.175 30.375 96.275 30.375 95.6C30.375 92.225 32.175 88.4 37.575 87.5L52.65 85.7C51.525 85.25 50.625 85.025 49.725 84.575C42.975 81.65 37.35 77.6 33.525 71.975zM72 78.5C74.25 78.725 77.4 78.95 81.9 79.4L89.775 80.075V87.725C89.775 95.375 88.875 100.1 86.625 103.25C84.375 106.4 80.1 110 72.225 110H70.425C66.15 109.55 62.55 108.2 59.4 105.95C56.25 103.7 54 100.55 52.875 96.725L42.075 98.075C43.65 103.7 46.8 107.975 51.3 110.9C57.15 114.5 63.9 116.525 71.325 116.75H75.15C85.05 116.75 92.25 114.5 97.65 109.775C98.325 109.1 99 108.2 99.675 107.3C100.35 106.175 101.025 105.5 101.475 104.825C101.475 104.6 101.7 103.925 101.925 103.475C101.925 103.25 102.15 102.8 102.15 102.575C102.6 101 102.825 99.875 103.05 99.2C103.05 98.975 103.275 98.075 103.5 96.275C103.5 95.375 103.725 94.25 103.725 93.125V58.25C103.725 55.1 104.175 52.175 105.075 49.7C105.975 46.775 107.1 44.975 108.225 43.4C108.675 42.725 109.35 42.05 110.025 41.15C106.65 38.45 104.175 36.2 102.15 34.625C101.25 33.95 100.575 33.275 100.125 32.825L98.325 34.625L96.975 35.975C96.525 36.425 96.3 36.65 96.075 37.1C96.075 37.1 95.625 37.55 94.5 39.125L94.275 39.35C93.375 40.475 92.7 41.375 92.475 41.825L88.425 47.675L83.7 42.5C78.975 37.55 74.475 34.4 69.975 33.05C67.05 32.15 63.45 31.7 59.175 31.7C53.1 31.7 48.15 33.5 44.325 37.1C40.725 40.475 38.925 45.425 38.925 52.175C38.925 57.575 40.275 62.3 42.75 65.9C45.45 69.5 49.05 72.425 54 74.225C58.95 76.025 65.025 77.6 72 78.5zM61.425 87.95C62.55 89.3 63.45 90.875 63.9 92.9C64.35 94.475 65.025 95.825 66.15 96.5C67.725 97.625 69.525 98.3 71.55 98.525H72.45C75.825 98.525 76.95 97.4 77.625 96.725C77.625 96.725 78.525 95.375 78.75 90.2C75.375 89.975 72.675 89.75 70.65 89.525C67.5 89.3 64.35 88.625 61.425 87.95zM128.025 4.25C127.35 5.375 126.225 5.6 125.1 5.15C124.65 4.925 124.2 4.7 123.3 4.475C122.4 4.025 121.95 4.025 121.5 3.8C105.525 -2.275 89.775 -5.2 73.35 -5.2C48.825 -5.2 26.55 0.875 5.625 12.8C4.725 13.25 4.05 13.25 3.6 12.575C3.375 12.35 3.375 12.125 3.375 11.9C3.375 11.45 3.6 11 4.05 10.775C13.05 2.675 23.625 -3.85 35.1 -8.35C46.575 -12.85 58.95 -15.1 71.775 -15.1C80.1 -15.1 88.65 -13.975 97.65 -11.725C106.425 -9.25 114.3 -6.1 121.5 -2.05C123.975 -0.7 125.775 0.65 127.125 1.775C128.475 2.45 128.7 3.125 128.025 4.25zM138.825 13.7C138.15 14.6 135.9 15.275 132.075 15.5C131.4 15.725 130.5 15.725 129.6 15.725C126.675 15.725 123.525 15.275 120.375 14.375C118.575 13.925 116.55 13.025 114.3 11.45C113.85 11 113.85 10.775 113.625 10.325C113.625 10.1 113.4 9.875 113.4 9.875C113.4 9.65 113.4 9.425 113.625 9.425C113.85 9.2 114.075 9.2 114.75 9.2C116.55 9.425 118.35 9.65 120.375 9.875C122.175 10.1 123.975 10.1 125.325 10.1C129.15 10.1 131.4 9.65 132.3 8.525C132.75 8.075 132.75 7.4 132.75 6.5C132.75 3.8 131.175 -1.375 128.025 -8.575C127.8 -9.25 127.8 -9.7 128.475 -9.925C128.7 -9.925 128.925 -10.15 128.925 -10.15C129.375 -10.15 129.6 -9.925 130.05 -9.7C132.75 -7.225 135 -4.075 136.8 -0.025C138.6 3.8 139.275 7.4 139.275 10.325V11.225C139.275 12.35 139.05 13.025 138.825 13.7z" />
    <glyph glyph-name="amex"
      unicode="&#xEA0A;"
      horiz-adv-x="144" d="M27.9 47.45H39.375L40.95 41.15H50.175V65.675H50.85L58.05 42.5H63L69.975 65.675H70.65V41.15H75.375V70.85H67.05L60.3 47.675L53.55 70.85H45V42.95L38.025 70.85H28.35L20.925 41.375H25.65L27.9 47.45zM32.625 67.025H34.875L38.475 51.725H29.025L32.625 67.025zM104.4 41.375H104.85L111.375 52.625L117.675 41.375H123.075L114.3 56L123.075 71.3H117.675L111.15 59.6L104.85 71.3H79.875V41.825H99.225C99.225 41.375 104.4 41.375 104.4 41.375zM84.825 54.2H96.075V58.25H84.825V66.575H101.7L108 55.325L101.7 45.425H84.6V54.2zM138.15 88.175H5.85C2.7 88.175 0.225 85.7 0.225 82.55V29.225C0.225 26.075 2.7 23.6 5.85 23.6H138.375C141.525 23.6 144 26.075 144 29.225V82.55C143.775 85.7 141.3 88.175 138.15 88.175zM132.525 35.075H11.475V76.925H132.75V35.075z" />
    <glyph glyph-name="anchor"
      unicode="&#xEA0B;"
      horiz-adv-x="144" d="M123.75 29.675L112.95 38C110.025 40.475 105.75 40.475 102.15 38L92.025 29.675C89.55 27.875 89.1 23.6 90.9 21.35C92.7 18.875 96.975 18.425 99.225 20.225L101.7 22.025C101.025 9.425 91.575 -1.375 78.3 -3.85V68.15H90C93.6 68.15 96.075 70.625 96.075 74.225S93.6 80.3 90 80.3H78.075V89.975C86.4 92.45 92.475 99.65 92.475 108.65C92.475 119 83.475 128 72 128S51.75 119 51.75 108.2C51.75 99.2 57.825 92 66.15 89.525V79.85H54C50.4 79.85 47.925 77.375 47.925 73.775S50.4 67.7 54 67.7H65.925V-3.625C53.325 -1.15 43.2 8.975 42.525 21.575L44.325 19.775C45.45 19.1 46.8 18.65 47.925 18.65C49.725 18.65 51.525 19.325 52.65 21.125C54.45 23.6 54.45 27.65 51.525 29.45L41.4 38C38.475 40.475 34.2 40.475 30.6 38L20.475 29.675C18 27.875 17.55 23.6 19.35 21.35S25.425 18.425 27.675 20.225L30.6 22.7C31.275 1.325 49.275 -16 72 -16C94.275 -16 112.725 0.875 113.4 21.8L115.875 20C117 19.325 118.35 18.875 119.475 18.875C121.275 18.875 123.075 19.55 124.2 21.35C126.675 23.6 126 27.875 123.75 29.675zM72 116.075C76.725 116.075 80.325 112.475 80.325 108.2S76.95 101 72 101S63.675 104.6 63.675 108.875S67.275 116.075 72 116.075z" />
    <glyph glyph-name="amazon-original"
      unicode="&#xEA0C;"
      horiz-adv-x="144" d="M127.8 22.925C110.025 15.5 90.9 11.9 73.35 11.9C47.7 11.675 22.5 18.875 2.25 30.8C0.45 31.925 -0.9 30.125 0.675 28.55C19.35 11.675 44.325 1.325 71.775 1.325C91.575 1.325 114.3 7.625 130.05 19.1C132.75 21.125 130.5 24.05 127.8 22.925zM143.325 31.7C141.525 33.95 126.9 35.525 117.9 29.45C116.55 28.55 116.775 27.2 118.35 27.2C123.3 27.875 134.775 29.225 136.8 26.525C138.825 23.825 134.55 13.475 132.75 8.525C132.0750000000001 7.175 133.425 6.5 134.775 7.625C143.1 14.825 145.35 29.675 143.325 31.7zM79.2 82.325C71.775 81.65 61.65 80.975 54.675 77.825C46.575 74.225 40.725 67.025 40.725 56.45C40.725 42.725 49.275 35.975 60.3 35.975C69.525 35.975 74.7 38.225 81.9 45.425C84.15 42.05 85.05 40.25 89.325 36.65C90.225 36.2 91.575 36.2 92.475 36.875C95.175 39.125 99.9 43.4 102.6 45.425C103.725 46.325 103.5 47.675 102.6 48.8C100.35 52.175 97.65 54.65 97.65 60.95V81.425C97.65 89.975 98.325 98.075 91.8 103.925C86.85 108.875 78.525 110.45 72 110.45C59.4 110.45 45.675 105.725 42.75 90.425C42.525 88.85 43.65 87.95 44.55 87.725L57.15 86.375C58.5 86.375 59.175 87.725 59.4 88.625C60.525 94.025 64.8 96.5 69.975 96.5C72.675 96.5 75.825 95.6 77.4 93.125C79.2 90.425 78.975 86.6 78.975 83.675L79.2 82.325zM76.725 55.1C74.7 51.5 71.325 49.25 67.725 49.25C62.775 49.25 59.625 53.075 59.625 58.7C59.625 69.725 69.75 71.75 78.975 71.75V68.825C79.2 63.875 79.2 59.6 76.725 55.1z" />
    <glyph glyph-name="android-original"
      unicode="&#xEA0D;"
      horiz-adv-x="144" d="M32.175 22.25C32.175 16.85 36.45 12.575 41.85 12.575H48.15V-7C48.15 -11.95 52.2 -16 57.15 -16S66.15 -11.95 66.15 -7V12.575H78.075V-7C78.075 -11.95 82.125 -16 87.075 -16S96.075 -11.95 96.075 -7V12.575H102.375C107.775 12.575 112.05 16.85 112.05 22.25V79.625H32.175V22.25zM91.575 114.725L97.875 125.975C98.325 126.65 98.1 127.325 97.425 127.775C97.2 128 96.975 128 96.75 128C96.3 128 95.85 127.775 95.625 127.325L89.325 115.85C84.15 118.1 78.3 119.45 72.225 119.45S60.3 118.1 55.125 115.85L48.825 127.325C48.375 128 47.7 128.225 47.025 127.775C46.35 127.325 46.125 126.65 46.575 125.975L52.875 114.725C40.725 108.425 32.625 96.5 32.625 82.775H112.05C111.825 96.5 103.5 108.425 91.575 114.725zM53.775 97.4C51.975 97.4 50.4 98.975 50.4 100.775S51.975 104.15 53.775 104.15S57.15 102.575 57.15 100.775C56.925 98.975 55.575 97.4 53.775 97.4zM90.225 97.4C88.425 97.4 86.85 98.975 86.85 100.775S88.425 104.15 90.225 104.15S93.6 102.575 93.6 100.775S92.25 97.4 90.225 97.4zM20.025 81.2C15.075 81.2 11.025 77.15 11.025 72.2V35.075C11.025 30.125 15.075 26.075 20.025 26.075S29.025 30.125 29.025 35.075V72.425C29.025 77.15 24.975 81.2 20.025 81.2zM123.975 81.2C119.025 81.2 114.975 77.15 114.975 72.2V35.075C114.975 30.125 119.025 26.075 123.975 26.075S132.975 30.125 132.975 35.075V72.425C132.75 77.15 128.925 81.2 123.975 81.2z" />
    <glyph glyph-name="android"
      unicode="&#xEA0E;"
      horiz-adv-x="144" d="M58.275 98.075A3.1499999999999995 3.1499999999999995 0 0 1 64.575 98.075A3.1499999999999995 3.1499999999999995 0 0 1 58.275 98.075M77.4 98.075A3.1499999999999995 3.1499999999999995 0 0 1 83.7 98.075A3.1499999999999995 3.1499999999999995 0 0 1 77.4 98.075M122.625 85.25C121.05 85.25 119.475 85.025 118.125 84.575L117 88.175C114.3 96.275 109.8 103.25 103.725 108.65L111.825 117.425C113.85 119.675 113.85 123.275 111.6 125.3C109.35 127.325 105.75 127.325 103.725 125.075L94.5 115.175C87.975 118.55 80.55 120.575 72.9 120.575C64.8 120.575 57.15 118.55 50.4 114.725L40.5 125.075C38.475 127.325 34.875 127.55 32.625 125.3C30.375 123.275 30.15 119.675 32.4 117.425L41.175 107.975C35.55 102.575 31.05 95.825 28.575 87.95L27.225 83.9C25.425 84.575 23.4 85.025 21.375 85.025C13.275 85.25 6.75 78.725 6.75 70.625V47.9C6.75 40.025 13.275 33.5 21.375 33.5H21.6C25.425 33.5 29.025 35.075 31.725 37.55V22.025C31.725 19.1 33.525 16.625 36.225 15.95V0.875C36.225 -7.225 42.75 -13.75 50.85 -13.75H51.075C59.175 -13.75 65.7 -7.225 65.7 0.875V15.5H79.2V0.875C79.2 -7.225 85.725 -13.75 93.825 -13.75H94.05C102.15 -13.75 108.675 -7.225 108.675 0.875V15.5H108.9C112.5 15.5 115.425 18.425 115.425 22.025V35.75C117.675 34.4 120.375 33.5 123.3 33.5H123.525C131.625 33.5 138.15 40.025 138.15 48.125V70.625C137.25 78.725 130.725 85.25 122.625 85.25zM102.825 92H42.525C48.6 102.575 60.075 109.1 72.675 109.1C85.275 109.1 96.525 102.575 102.825 92zM24.75 48.125C24.75 46.325 23.175 44.75 21.375 44.75S18 46.325 18 48.125V70.625C18 72.425 19.575 74 21.375 74S24.75 72.425 24.75 70.625V48.125zM54 0.875C54 -0.925 52.425 -2.5 50.625 -2.5H50.4C48.6 -2.5 47.025 -0.925 47.025 0.875V15.5H53.775V0.875zM65.25 26.75H42.75V80.75H103.5V26.75H65.25zM96.75 0.875C96.75 -0.925 95.175 -2.5 93.375 -2.5H93.15C91.35 -2.5 89.775 -0.925 89.775 0.875V15.5H96.525V0.875zM126 48.125C126 46.325 124.425 44.75 122.625 44.75H122.4C120.6 44.75 119.025 46.325 119.025 48.125V70.625C119.025 72.425 120.6 74 122.4 74S125.775 72.425 125.775 70.625V48.125z" />
    <glyph glyph-name="angellist"
      unicode="&#xEA0F;"
      horiz-adv-x="144" d="M106.65 67.475C110.025 76.7 119.475 103.25 119.475 111.575C119.475 119 114.975 125.3 107.1 125.3C94.5 125.3 83.25 88.4 79.875 79.4C76.95 87.5 64.35 128 53.1 128C44.325 128 40.275 121.475 40.275 113.375C40.275 103.475 49.95 77.6 53.325 67.7C51.525 68.375 49.725 68.825 47.7 68.825C41.175 68.825 34.2 60.725 34.2 53.975C34.2 51.5 35.55 47.9 36.45 45.65C26.1 42.725 22.05 35.975 22.05 25.4C22.05 5.15 41.175 -16.45 68.4 -16.45C101.475 -16.45 122.175 8.525 122.175 40.7C121.95 53.075 120.15 64.1 106.65 67.475zM96.75 97.625C97.875 101 102.6 115.625 107.1 115.625C109.575 115.625 110.25 113.15 110.25 111.125C110.25 105.95 99.225 76.25 96.975 69.5L87.3 71.3L96.75 97.625zM49.05 114.5C49.05 117.875 53.1 127.325 62.1 101.225L71.775 73.1C67.275 73.55 63.9 74 61.875 72.65C58.725 80.75 49.05 106.175 49.05 114.5zM48.375 59.375C56.7 59.375 67.275 32.825 67.275 29.225C67.275 27.875 65.925 26.075 64.35 26.075C58.5 26.075 42.75 47.675 42.75 53.525C42.75 55.55 46.125 59.375 48.375 59.375zM100.125 6.95C92.025 -2.05 81.45 -6.775 69.3 -6.775C52.65 -6.775 39.375 2.45 33.075 17.975C28.35 30.125 34.2 37.1 38.925 37.1C42.075 37.1 54.225 20.225 54.225 16.625C54.225 15.275 51.975 14.375 50.85 14.375C46.35 14.375 44.55 18.65 36.45 28.775C28.125 20.45 42.3 4.25 52.875 4.25C60.3 4.25 65.025 11 63.675 16.175C64.8 16.175 65.925 16.175 67.05 16.4C67.275 8.75 69.525 -0.25 78.75 -0.925C78.75 -0.7 79.425 1.1 79.425 1.1C79.425 6.05 76.5 10.325 76.5 15.275C76.5 23.15 82.575 31.025 88.875 35.525C91.125 37.325 93.825 38.225 96.525 39.125C99.225 40.25 102.15 41.375 104.175 43.4C103.95 46.55 102.6 49.25 99.45 49.25C91.575 49.25 65.475 48.125 65.475 60.5C65.475 62.3 65.475 64.1 70.425 64.1C79.425 64.1 102.6 61.85 109.35 56C114.075 51.5 115.65 24.275 100.125 6.95zM72.45 42.5C75.15 41.6 78.075 41.375 80.775 40.7C78.75 39.125 76.725 37.325 75.15 35.3C74.25 37.775 73.35 40.025 72.45 42.5z" />
    <glyph glyph-name="angle-double-down"
      unicode="&#xEA10;"
      horiz-adv-x="144" d="M65.7 40.25C67.5 38.45 69.975 37.325 72.225 37.325C74.7 37.325 76.95 38.45 78.75 40.25L141.975 99.875C144.45 102.35 144.45 105.95 141.975 108.2S135.9 110.675 133.65 108.2L72.9 49.7L10.35 108.425C7.875 110.9 4.275 110.9 2.025 108.425S-0.45 102.35 2.025 100.1L65.7 40.25zM134.325 72.875L72.225 14.375L10.125 72.875C7.65 75.35 4.05 75.35 1.8 72.875S-0.675 66.8 1.8 64.55L65.7 4.925C67.5 3.125 69.975 2 72.225 2C74.7 2 76.95 3.125 78.75 4.925L141.975 64.55C144.45 67.025 144.45 70.625 141.975 72.875C140.4 75.35 136.8 75.35 134.325 72.875z" />
    <glyph glyph-name="angle-double-left"
      unicode="&#xEA11;"
      horiz-adv-x="144" d="M124.2 -5.2L66.15 55.775L124.2 117.2C126.675 119.675 126.675 123.275 124.2 125.525S118.125 128 115.875 125.525L56.7 62.3C53.1 58.7 53.1 52.85 56.7 48.575L115.875 -14.2C117 -15.325 118.8 -16 120.15 -16C121.275 -16 123.075 -15.325 124.425 -14.2C126.45 -11.275 126.45 -7.675 124.2 -5.2zM30.825 56.225L88.875 117.875C91.35 120.35 91.35 123.95 88.875 126.2C86.4 128.675 82.8 128.675 80.55 126.2L20.7 62.975C17.1 59.375 17.1 53.525 20.7 49.25L79.875 -13.525C81 -14.65 82.8 -15.325 84.15 -15.325S87.075 -14.65 88.425 -13.525C90.9 -11.05 90.9 -7.45 88.425 -5.2L30.825 56.225z" />
    <glyph glyph-name="angle-double-right"
      unicode="&#xEA12;"
      horiz-adv-x="144" d="M87.525 63.2L28.125 126.2C25.65 128.675 22.05 128.675 19.8 126.2S17.325 120.125 19.8 117.875L78.075 56.675L19.8 -5.875C17.325 -8.35 17.325 -11.95 19.8 -14.2C20.925 -15.325 22.725 -16 24.075 -16C25.875 -16 27 -15.325 28.35 -14.2L87.75 49.475C91.125 53.525 91.125 59.6 87.525 63.2zM122.85 63.2L63.45 126.2C60.975 128.675 57.375 128.675 55.125 126.2S52.65 120.125 55.125 117.875L113.4 56L55.125 -5.875C52.65 -8.35 52.65 -11.95 55.125 -14.2C56.25 -15.325 57.6 -16 59.4 -16C61.2 -16 62.325 -15.325 63.675 -14.2L123.075 49.475C127.125 53.075 127.125 58.925 122.85 63.2z" />
    <glyph glyph-name="angle-double-up"
      unicode="&#xEA13;"
      horiz-adv-x="144" d="M10.125 39.125L72 97.175L133.875 38.9C135 37.775 136.35 37.1 138.15 37.1C139.95 37.1 141.075 37.775 142.425 38.9C144.9 41.375 144.9 44.975 142.425 47.225L78.525 107.525C74.925 111.125 68.85 111.125 64.8 107.525L1.8 47.45C-0.675 44.975 -0.675 41.375 1.8 39.125S7.875 36.65 10.125 39.125zM78.525 71.525C74.925 75.125 68.85 75.125 64.8 71.525L1.8 12.125C-0.675 9.65 -0.675 6.05 1.8 3.8S7.875 1.325 10.125 3.8L71.325 62.075L133.2 3.8C134.325 2.675 135.675 2 137.475 2C139.275 2 140.4 2.675 141.75 3.8C144.225 6.275 144.225 9.875 141.75 12.125L78.525 71.525z" />
    <glyph glyph-name="angular"
      unicode="&#xEA14;"
      horiz-adv-x="144" d="M59.85 52.175H84.375L72 81.65L59.85 52.175zM72 128L5.175 104.15L15.525 15.5L72 -16L128.475 15.5L138.6 104.15L72 128zM113.85 18.2H98.325L90 39.125H54.225L45.9 18.2H30.15L72 112.025L113.85 18.2z" />
    <glyph glyph-name="apartment"
      unicode="&#xEA15;"
      horiz-adv-x="144" d="M132.075 128H72C65.475 128 60.075 122.6 60.075 116.075V104.15H11.925C5.4 103.925 0 98.525 0 92V-4.075C0 -10.6 5.4 -16 11.925 -16H132.075C138.6 -16 144 -10.6 144 -4.075V116.075C144 122.6 138.6 128 132.075 128zM60.075 -4.075H11.925V92H59.85V-4.075zM72 -4.075V116.075H132.075V-3.85H72zM20.925 67.925H27C28.8 67.925 29.925 69.05 29.925 70.85V76.925C29.925 78.725 28.8 79.85 27 79.85H20.925C19.125 79.85 18 78.725 18 76.925V70.85C18 69.275 19.125 67.925 20.925 67.925zM45 67.925H51.075C52.875 67.925 54 69.05 54 70.85V76.925C54 78.725 52.875 79.85 51.075 79.85H45C43.2 79.85 42.075 78.725 42.075 76.925V70.85C42.075 69.275 43.2 67.925 45 67.925zM20.925 38H27C28.8 38 29.925 39.125 29.925 40.925V47C29.925 48.8 28.8 49.925 27 49.925H20.925C19.125 49.925 18 48.8 18 47V40.925C18 39.125 19.125 38 20.925 38zM45 38H51.075C52.875 38 54 39.125 54 40.925V47C54 48.8 52.875 49.925 51.075 49.925H45C43.2 49.925 42.075 48.8 42.075 47V40.925C42.075 39.125 43.2 38 45 38zM20.925 8.075H27C28.8 8.075 29.925 9.2 29.925 11V17.075C29.925 18.875 28.8 20 27 20H20.925C19.125 20 18 18.875 18 17.075V11C18 9.2 19.125 8.075 20.925 8.075zM45 8.075H51.075C52.875 8.075 54 9.2 54 11V17.075C54 18.875 52.875 20 51.075 20H45C43.2 20 42.075 18.875 42.075 17.075V11C42.075 9.2 43.2 8.075 45 8.075zM92.925 103.925H86.85C85.05 103.925 83.925 102.8 83.925 101V94.925C83.925 93.125 85.05 92 86.85 92H92.925C94.725 92 95.85 93.125 95.85 94.925V101C96.075 102.8 94.725 103.925 92.925 103.925zM117 103.925H110.925C109.125 103.925 108 102.8 108 101V94.925C108 93.125 109.125 92 110.925 92H117C118.8 92 119.925 93.125 119.925 94.925V101C119.925 102.8 118.8 103.925 117 103.925zM92.925 80.075H86.85C85.05 80.075 83.925 78.95 83.925 77.15V71.075C83.925 69.275 85.05 68.15 86.85 68.15H92.925C94.725 68.15 95.85 69.275 95.85 71.075V77.15C96.075 78.725 94.725 80.075 92.925 80.075zM117 80.075H110.925C109.125 80.075 108 78.95 108 77.15V71.075C108 69.275 109.125 68.15 110.925 68.15H117C118.8 68.15 119.925 69.275 119.925 71.075V77.15C119.925 78.725 118.8 80.075 117 80.075zM92.925 56H86.85C85.05 56 83.925 54.875 83.925 53.075V47C83.925 45.2 85.05 44.075 86.85 44.075H92.925C94.725 44.075 95.85 45.2 95.85 47V53.075C96.075 54.875 94.725 56 92.925 56zM117 56H110.925C109.125 56 108 54.875 108 53.075V47C108 45.2 109.125 44.075 110.925 44.075H117C118.8 44.075 119.925 45.2 119.925 47V53.075C119.925 54.875 118.8 56 117 56zM92.925 31.925H86.85C85.05 31.925 83.925 30.8 83.925 29V22.925C83.925 21.125 85.05 20 86.85 20H92.925C94.725 20 95.85 21.125 95.85 22.925V29C96.075 30.8 94.725 31.925 92.925 31.925zM117 31.925H110.925C109.125 31.925 108 30.8 108 29V22.925C108 21.125 109.125 20 110.925 20H117C118.8 20 119.925 21.125 119.925 22.925V29C119.925 30.8 118.8 31.925 117 31.925z" />
    <glyph glyph-name="app-store"
      unicode="&#xEA16;"
      horiz-adv-x="144" d="M72 95.15L74.7 99.65C76.275 102.575 79.875 103.475 82.8 101.9C85.725 100.325 86.625 96.725 85.05 93.8L59.4 49.925H77.85C83.7 49.925 87.075 42.95 84.6 38H30.825C27.45 38 24.975 40.7 24.975 43.85C24.975 47.225 27.675 49.7 30.825 49.7H45.9L65.25 83.45L59.175 94.025C57.6 96.95 58.5 100.55 61.425 102.125C64.35 103.7 67.95 102.8 69.525 99.875L72 95.15zM49.05 31.925L43.425 22.025C41.85 19.1 38.25 18.2 35.325 19.775C32.4 21.35 31.5 24.95 33.075 27.875L37.35 35.3C42.075 36.875 46.125 35.75 49.05 31.925zM98.1 49.925H113.625C117 49.925 119.475 47.225 119.475 44.075C119.475 40.7 116.775 38.225 113.625 38.225H105.075L110.925 28.1C112.5 25.175 111.6 21.575 108.675 20C105.75 18.425 102.15 19.325 100.575 22.25C90.9 39.125 83.475 51.725 78.75 60.275C73.8 68.825 77.4 77.375 80.775 80.3C84.6 73.325 90.45 63.2 98.1 49.925zM72 128C32.175 128 0 95.825 0 56S32.175 -16 72 -16S144 16.175 144 56S111.825 128 72 128zM134.775 56C134.775 21.575 106.875 -6.775 72 -6.775C37.575 -6.775 9.225 21.125 9.225 56C9.225 90.425 37.125 118.775 72 118.775C106.425 118.775 134.775 90.875 134.775 56z" />
    <glyph glyph-name="apple-pay"
      unicode="&#xEA17;"
      horiz-adv-x="144" d="M26.325 78.05C24.75 76.025 22.05 74.45 19.35 74.675C19.125 77.375 20.25 80.3 21.825 82.1C23.4 84.125 26.55 85.7 28.8 85.7C29.025 82.775 27.9 80.075 26.325 78.05M28.8 74C24.975 74.225 21.6 71.75 19.8 71.75C17.775 71.75 14.85 74 11.925 74C7.875 74 4.275 71.75 2.025 68.15C-2.25 60.95 0.9 50.15 4.95 44.3C6.975 41.375 9.225 38.225 12.375 38.225C15.3 38.225 16.425 40.25 20.025 40.25C23.625 40.25 24.75 38.225 27.9 38.45C31.05 38.45 33.3 41.375 35.1 44.3C37.35 47.675 38.25 50.825 38.25 51.05C38.25 51.05 31.95 53.525 31.95 60.725C31.95 66.8 36.9 69.5 37.125 69.725C34.65 73.55 30.375 74 28.8 74M51.3 82.325V38.45H58.05V53.525H67.5C76.05 53.525 82.125 59.375 82.125 67.925S76.275 82.325 67.725 82.325H51.3zM58.275 76.475H66.15C72 76.475 75.375 73.325 75.375 67.7S72 58.925 66.15 58.925H58.275V76.475zM94.725 38C99 38 103.05 40.25 104.85 43.625H105.075V38.45H111.375V60.275C111.375 66.575 106.425 70.625 98.55 70.625C91.35 70.625 85.95 66.575 85.725 60.725H91.8C92.25 63.425 94.725 65.225 98.325 65.225C102.375 65.225 104.85 63.2 104.85 59.825V57.35L96.3 56.9C88.425 56.45 84.15 53.3 84.15 47.675C83.925 41.825 88.425 38 94.725 38zM96.525 43.175C92.925 43.175 90.675 44.975 90.675 47.675S92.925 51.95 97.2 52.175L104.85 52.625V50.15C104.625 46.1 101.025 43.175 96.525 43.175zM119.475 26.525C126 26.525 129.15 29 131.85 36.65L144 70.175H137.025L128.925 44.3H128.7L120.6 70.175H113.4L124.875 38.225L124.2 36.2C123.075 32.825 121.5 31.7 118.575 31.7H116.55V26.525H119.475z" />
    <glyph glyph-name="apple"
      unicode="&#xEA18;"
      horiz-adv-x="144" d="M49.5 -16C40.275 -16 30.6 -9.25 21.15 4.025C11.7 17.75 6.975 31.025 6.975 43.625C6.975 56 10.8 65.9 18 73.55C24.975 80.975 33.975 84.575 44.55 84.575C48.825 84.575 54.225 83.9 60.975 82.325C70.2 80.075 72.9 80.075 74.025 80.075C76.95 80.075 81.225 80.975 87.3 82.775C93.6 84.575 98.775 85.475 103.5 85.475C110.925 85.475 117.675 83.9 123.3 80.525C125.325 79.4 127.125 78.05 129.6 76.025L135 71.525L129.375 67.25C126.675 65 124.2 62.975 122.625 60.95C119.025 56.45 117 51.725 117 46.55C117 40.925 119.025 35.75 123.075 30.575C126 26.975 129.6 24.5 133.65 22.7L138.825 20.45L136.575 15.275C134.1 9.875 130.725 4.475 126.45 -0.7C118.35 -10.825 110.25 -16 102.375 -16C99.45 -16 95.175 -15.1 89.55 -13.525C84.15 -11.95 79.425 -11.05 75.375 -11.05C71.325 -11.05 67.05 -11.95 62.1 -13.525C56.925 -15.1 52.875 -16 49.5 -16zM44.55 73.325C37.125 73.325 31.275 70.85 26.1 65.675C20.925 60.275 18.225 52.85 18.225 43.625C18.225 33.5 22.275 22.25 30.375 10.55C37.125 0.875 44.1 -4.75 49.5 -4.75C51.525 -4.75 54.45 -4.075 58.05 -2.725C64.35 -0.7 69.75 0.425 75.15 0.425C80.325 0.425 86.4 -0.475 92.7 -2.5C99.225 -4.3 101.925 -4.525 102.375 -4.525C106.65 -4.525 112.05 -0.7 117.675 6.5C120.15 9.425 122.175 12.35 123.75 15.275C120.375 17.525 117.225 20.225 114.3 23.6C108.675 30.575 105.75 38.45 105.75 46.55C105.75 54.425 108.45 61.625 113.85 68.15C114.75 69.05 115.65 70.175 116.775 71.075C112.95 73.1 108.675 74 103.5 74C99.9 74 95.625 73.325 90.45 71.75C83.025 69.725 78.075 68.6 74.025 68.6C71.55 68.6 67.725 68.825 58.5 71.075C52.65 72.875 47.925 73.325 44.55 73.325zM74.475 89.75C71.325 89.75 68.175 91.1 65.925 93.35C63.675 95.825 63 98.975 63.675 101.9C65.925 111.125 68.85 116.975 72.9 120.125L73.125 120.35C79.2 125.075 88.425 126.875 95.175 127.775C98.775 128.225 102.375 127.1 104.85 124.4C107.1 122.15 108 119.225 107.55 116.3C106.65 110.225 103.95 102.125 97.65 96.95L97.425 96.725C92.7 93.35 85.725 91.1 76.725 89.75H74.475zM74.7 99.2zM79.875 111.575C78.525 110.45 76.725 107.3 75.15 101.225C81.9 102.35 87.3 104.15 90.45 106.175C93.6 108.875 95.175 113.375 95.85 116.75C88.65 115.625 83.025 113.825 79.875 111.575z" />
    <glyph glyph-name="archive"
      unicode="&#xEA19;"
      horiz-adv-x="144" d="M132.075 121.925H11.925C5.4 121.925 0 116.525 0 110V92C0 85.475 5.4 80.075 11.925 80.075V2C11.925 -4.525 17.325 -9.925 23.85 -9.925H119.925C126.45 -9.925 131.85 -4.525 131.85 2V80.075C138.375 80.075 143.775 85.475 143.775 92V110C144 116.525 138.6 121.925 132.075 121.925zM119.925 2H24.075V80.075H120.15V2zM11.925 92V110H131.85V92H11.925zM54 26.075H90C96.525 26.075 101.925 31.475 101.925 38V49.925C101.925 56.45 96.525 61.85 90 61.85H54C47.475 61.85 42.075 56.45 42.075 49.925V38C42.075 31.475 47.475 26.075 54 26.075zM54 49.925H90V38H54V49.925z" />
    <glyph glyph-name="arrow-down-circle"
      unicode="&#xEA1A;"
      horiz-adv-x="144" d="M86.4 33.275L78.075 27.2V92C78.075 95.6 75.6 98.075 72 98.075S65.925 95.6 65.925 92V27.2L57.6 33.275C54.675 35.075 51.075 34.4 49.275 32.15C47.475 29.225 48.15 25.625 50.4 23.825L64.8 13.7C66.6 12.575 69.525 11.225 72 11.225S76.725 11.9 79.2 13.7L93.6 23.825C96.075 25.625 97.2 29.225 94.725 32.15C92.475 35.075 88.875 35.075 86.4 33.275zM72 128C32.4 128 0 95.6 0 56S32.4 -16 72 -16S144 16.4 144 56S111.6 128 72 128zM72 -4.075C38.925 -4.075 11.925 22.925 11.925 56S38.925 116.075 72 116.075S132.075 89.075 132.075 56S105.075 -4.075 72 -4.075z" />
    <glyph glyph-name="arrow-left-circle"
      unicode="&#xEA1B;"
      horiz-adv-x="144" d="M108 62.075H43.2L49.275 70.4C51.075 72.875 50.4 76.925 48.15 78.725C45.675 80.525 41.625 79.85 39.825 77.6L29.7 63.2C26.775 58.925 26.775 53.525 29.7 49.475L39.825 35.075C40.95 33.275 42.75 32.6 44.55 32.6C45.675 32.6 47.025 33.275 48.15 33.725C50.625 35.525 51.75 39.125 49.275 42.05L43.2 50.375H108C111.6 50.375 114.075 52.85 114.075 56.45C114.075 59.6 111.6 62.075 108 62.075zM72 128C32.4 128 0 95.6 0 56S32.4 -16 72 -16S144 16.4 144 56S111.6 128 72 128zM72 -4.075C38.925 -4.075 11.925 22.925 11.925 56S38.925 116.075 72 116.075S132.075 89.075 132.075 56S105.075 -4.075 72 -4.075z" />
    <glyph glyph-name="arrow-left"
      unicode="&#xEA1C;"
      horiz-adv-x="144" d="M137.925 61.85H16.425L28.35 76.25C30.825 78.725 30.15 82.775 27.675 84.575C25.2 87.05 21.15 86.375 19.35 83.9L2.475 64.1C-1.125 59.375 -1.125 52.625 2.475 47.9L19.35 28.1C20.025 26.3 21.825 25.625 23.625 25.625C24.75 25.625 26.55 26.3 27.225 26.75C29.7 29.225 30.15 32.825 27.9 35.075L15.975 49.475H137.925C141.525 49.475 144 51.95 144 55.55C144 59.375 141.525 61.85 137.925 61.85z" />
    <glyph glyph-name="arrow-right-circle"
      unicode="&#xEA1D;"
      horiz-adv-x="144" d="M115.2 63.2L105.075 77.6C103.275 80.075 99.675 81.2 96.75 78.725C94.275 76.925 93.15 73.325 95.625 70.4L101.7 62.075H36C32.4 62.075 29.925 59.6 29.925 56S32.4 49.925 36 49.925H100.8L94.725 41.6C92.925 38.675 93.6 35.075 95.85 33.275C96.975 32.6 98.325 32.15 99.45 32.15C101.25 32.15 103.05 32.825 104.175 34.625L114.3 49.025C118.125 53.075 118.125 58.925 115.2 63.2zM72 128C32.4 128 0 95.6 0 56S32.4 -16 72 -16S144 16.4 144 56S111.6 128 72 128zM72 -4.075C38.925 -4.075 11.925 22.925 11.925 56S38.925 116.075 72 116.075S132.075 89.075 132.075 56S105.075 -4.075 72 -4.075z" />
    <glyph glyph-name="arrow-right"
      unicode="&#xEA1E;"
      horiz-adv-x="144" d="M140.85 64.325L123.975 84.125C121.5 86.6 117.9 87.05 115.65 84.8C113.175 82.325 112.725 78.725 114.975 76.475L126.9 62.075H6.075C2.475 62.075 0 59.6 0 56S2.475 49.925 6.075 49.925H127.125L115.2 35.525C112.725 33.05 113.4 29 115.875 27.2C117 26.075 118.35 26.075 119.475 26.075C121.275 26.075 123.075 26.75 124.2 28.55L141.075 48.35C145.125 52.175 145.125 59.375 140.85 64.325z" />
    <glyph glyph-name="arrow-top-left"
      unicode="&#xEA1F;"
      horiz-adv-x="144" d="M142.2 -5.875L20.475 116.075H60.075C63.675 116.075 66.15 118.55 66.15 122.15S63.675 128 60.075 128H15.525C7.2 128 0 121.475 0 112.475V68.15C0 64.55 2.475 62.075 6.075 62.075S12.15 64.55 12.15 68.15V107.525L133.875 -14.2C135 -15.325 136.8 -16 138.15 -16S141.075 -15.325 142.425 -14.2C144.675 -11.725 144.675 -8.125 142.2 -5.875z" />
    <glyph glyph-name="arrow-top-right"
      unicode="&#xEA20;"
      horiz-adv-x="144" d="M128.475 128H83.925C80.325 128 77.85 125.525 77.85 121.925S80.325 115.85 83.925 115.85H123.525L1.8 -5.875C-0.675 -8.35 -0.675 -11.95 1.8 -14.2C2.925 -15.325 4.725 -16 6.075 -16S9 -15.325 10.35 -14.2L132.075 107.525V67.925C132.075 64.325 134.55 61.85 138.15 61.85S144.225 64.325 144.225 67.925V112.475C144 121.475 136.8 128 128.475 128z" />
    <glyph glyph-name="arrow-up-circle"
      unicode="&#xEA21;"
      horiz-adv-x="144" d="M79.2 99.2C74.925 102.125 69.525 102.125 65.475 99.2L51.075 89.075C48.6 87.275 47.475 83.675 49.95 80.75C52.425 77.825 55.35 77.15 58.275 79.625L66.6 85.7V20C66.6 16.4 69.075 13.925 72.675 13.925S78.75 16.4 78.75 20V84.8L87.075 78.725C88.2 78.05 89.55 77.6 90.675 77.6C92.475 77.6 94.275 78.275 95.4 80.075C97.2 82.55 96.525 86.6 94.275 88.4L79.2 99.2zM72 128C32.4 128 0 95.6 0 56S32.4 -16 72 -16S144 16.4 144 56S111.6 128 72 128zM72 -4.075C38.925 -4.075 11.925 22.925 11.925 56S38.925 116.075 72 116.075S132.075 89.075 132.075 56S105.075 -4.075 72 -4.075z" />
    <glyph glyph-name="arrow-up"
      unicode="&#xEA22;"
      horiz-adv-x="144" d="M99.675 108.65L79.875 125.525C75.15 129.125 68.4 129.125 63.675 125.525L43.875 108.65C41.4 106.175 40.95 102.575 43.2 100.325S49.275 97.4 51.525 99.65L65.925 111.575V-9.925C65.925 -13.525 68.4 -16 72 -16S78.075 -13.525 78.075 -9.925V110.9L92.475 98.975C93.15 98.3 94.95 97.85 96.075 97.85C97.875 97.85 99.675 98.525 100.8 100.325C102.6 102.575 102.6 106.175 99.675 108.65z" />
    <glyph glyph-name="arrows-horizontal"
      unicode="&#xEA23;"
      horiz-adv-x="144" d="M140.85 64.325L123.975 84.125C121.5 86.6 117.9 87.05 115.65 84.8S112.725 78.725 114.975 76.475L126.9 62.075H16.425L28.35 76.475C30.825 78.95 30.15 83 27.675 84.8C25.2 87.275 21.15 86.6 19.35 84.125L2.475 64.325C-1.125 59.6 -1.125 52.85 2.475 48.125L19.35 28.325C20.025 26.525 21.825 25.85 23.625 25.85C24.75 25.85 26.55 26.525 27.225 26.975C29.7 29.45 30.15 33.05 27.9 35.3L15.975 49.7H126.45L114.525 35.3C112.05 32.825 112.725 28.775 115.2 26.975C116.325 25.85 117.675 25.85 118.8 25.85C120.6 25.85 122.4 26.525 123.525 28.325L140.4 48.125C145.125 52.175 145.125 59.375 140.85 64.325z" />
    <glyph glyph-name="arrows-vertical"
      unicode="&#xEA24;"
      horiz-adv-x="144" d="M92.025 12.8L77.625 0.875V110.675L92.025 98.75C92.7 98.075 94.5 97.625 95.625 97.625C97.425 97.625 99.225 98.3 100.35 100.1C102.825 102.575 102.15 106.625 99.675 108.425L79.875 125.3C75.15 128.9 68.4 128.9 63.675 125.3L43.875 108.425C41.4 105.95 40.95 102.35 43.2 100.1S49.275 97.175 51.525 99.425L65.925 111.35V1.55L51.975 13.25C49.5 15.725 45.45 15.05 43.65 12.575C41.85 10.1 41.85 6.05 44.325 4.25L64.125 -12.625C65.925 -15.1 68.85 -16.225 72 -16.225S78.075 -15.1 80.325 -13.3L100.125 3.575C102.6 6.05 103.05 9.65 100.8 11.9C98.1 14.6 94.5 14.6 92.025 12.8z" />
    <glyph glyph-name="atlassian"
      unicode="&#xEA25;"
      horiz-adv-x="144" d="M42.75 61.4C40.5 63.65 37.125 63.65 35.775 60.725L0.45 -9.925C-0.9 -12.625 1.125 -16 4.275 -16H53.55C55.125 -16 56.7 -15.1 57.375 -13.75C67.95 8.3 61.425 41.6 42.75 61.4zM68.625 125.75C34.425 71.3 66.375 27.65 87.075 -13.75C87.75 -15.1 89.325 -16 90.9 -16H139.95C143.1 -16 145.125 -12.625 143.775 -9.925C143.775 -9.925 77.85 122.375 76.275 125.75C74.475 128.675 70.65 128.675 68.625 125.75z" />
    <glyph glyph-name="aws"
      unicode="&#xEA26;"
      horiz-adv-x="144" d="M40.5 67.925C40.5 62.75 42.975 60.5 42.975 59.15C42.975 58.475 42.525 58.025 42.075 57.8L39.15 55.775C38.7 55.55 38.25 55.325 37.8 55.325C37.8 55.325 36 54.875 33.3 61.175C29.925 56.9 24.75 54.425 19.125 54.65C15.525 54.425 5.625 56.675 6.075 67.25C5.625 75.8 13.725 81.2 22.05 80.75C23.625 80.75 27 80.75 32.625 79.4V83C33.3 88.85 29.25 93.575 22.5 92.9C22.05 92.9 18.225 92.9 12.15 90.65C10.575 89.525 10.575 89.75 9.9 89.75C8.325 89.75 9 94.475 9.225 95.15C10.35 96.5 17.325 99.2 24.075 99.2C28.575 99.65 33.075 98.3 36.675 95.375C39.6 92.225 40.95 87.95 40.725 83.675L40.5 67.925zM21.15 60.725C28.35 60.725 31.5 65.225 32.175 67.475C32.625 69.725 32.625 71.075 32.625 73.55C30.375 74 27.225 74.675 23.625 74.675C20.25 74.9 13.95 73.325 14.175 67.475C14.175 63.65 16.875 60.5 21.15 60.725zM59.625 55.55C57.825 55.325 56.925 56.675 56.7 57.8L45.45 94.925C45.225 95.6 45 96.275 45 96.95C45 97.625 45.225 98.075 45.9 98.075H50.85C52.875 98.3 53.55 96.725 53.775 95.825L61.875 64.1L69.3 95.825C69.525 96.5 69.975 98.3 72.225 98.075H76.05C76.5 98.075 78.525 98.075 78.975 95.825L86.4 63.65L94.725 95.825C94.725 96.275 95.4 98.3 97.65 98.075H102.15C102.375 98.075 103.5 98.3 103.275 96.05C103.275 95.6 103.95 98.525 91.35 57.8C91.125 56.45 90.225 55.325 88.425 55.55H84.15C81.675 55.325 81.225 57.8 81.225 58.025L73.8 88.85L66.375 58.025C66.375 57.8 65.925 55.325 63.45 55.55H59.625zM121.05 54.2C119.7 54.2 113.4 54.2 108.225 56.9C107.1 57.35 106.425 58.475 106.425 59.6V62.075C106.425 63.875 107.775 63.65 108.45 63.425C110.7 62.525 112.05 61.85 114.975 61.175C123.3 59.375 126.9 61.625 127.8 62.075C130.725 63.875 130.95 67.925 128.925 69.95C126.675 71.975 125.55 71.975 117 74.675C115.875 74.9 107.1 77.825 107.1 86.375C106.875 92.675 112.725 98.975 122.85 98.975C125.775 98.975 133.2 98.075 135.45 95.375C135.675 94.925 135.9 94.25 135.9 93.8V91.55C135.9 90.65 135.45 89.975 134.775 89.975C132.975 90.2 130.05 92.45 123.75 92.45C122.175 92.45 114.75 92.225 115.2 86.825C115.2 82.55 121.275 80.975 121.95 80.75C130.05 78.275 132.975 77.825 136.125 74C139.95 69.05 137.925 63.2 137.025 61.625C132.525 53.525 121.275 54.2 121.05 54.2zM130.275 30.575C114.525 18.875 91.575 12.8 72.225 12.8C45.675 12.575 20.25 22.25 0.675 40.025C-0.9 41.375 0.45 43.175 2.25 42.05C23.85 29.675 48.6 23.15 73.575 23.15C92.25 23.15 110.7 26.975 128.025 34.4C130.5 35.3 132.75 32.6 130.275 30.575zM136.8 38C134.775 40.7 123.525 39.125 118.35 38.675C116.775 38.45 116.55 39.8 117.9 40.7C126.9 47 141.75 45.2 143.325 43.175C145.125 41.15 142.875 26.3 134.325 19.1C132.975 17.975 131.85 18.65 132.3 20C134.55 24.95 138.825 35.525 136.8 38z" />
    <glyph glyph-name="arrow-down"
      unicode="&#xEA27;"
      horiz-adv-x="144" d="M100.8 11.675C98.325 14.15 94.725 14.6 92.475 12.35L78.075 0.425V121.925C78.075 125.525 75.6 128 72 128S65.925 125.525 65.925 121.925V0.65L51.525 12.575C49.05 15.05 45 14.375 43.2 11.9S41.4 5.375 43.875 3.575L63.675 -13.3C66.15 -15.1 69.075 -16.225 72 -16.225C74.925 -16.225 78.075 -15.1 80.325 -13.3L100.125 3.575C102.6 5.6 102.6 9.2 100.8 11.675z" />
    <glyph glyph-name="ambulance"
      unicode="&#xEA28;"
      horiz-adv-x="144" d="M0.225 59.15C0 58.925 0 58.475 0 58.25V25.175C0 20.225 4.275 15.725 9.45 15.725H10.125C12.6 8.3 20.25 2.675 28.8 2.675S44.325 8.3 47.475 15.725H95.4C97.875 8.3 105.525 2.675 114.075 2.675S129.6 8.3 132.75 15.725H135.9C140.4 15.725 143.775 19.325 143.775 23.6V95.375C142.65 102.8 137.25 109.1 129.6 109.1H57.375C49.95 109.1 43.65 103.025 43.65 95.375V90.425H37.575V96.5C37.575 100.1 34.65 103.025 31.275 102.8C27.675 102.8 25.2 100.55 25.2 96.725V90.65H18C14.4 90.65 11.25 88.175 9.225 84.575L0.225 59.15zM20.475 78.05H43.425V59.375H13.725L20.475 78.05zM28.575 15.5C24.975 15.5 21.825 18.65 21.825 22.925S24.975 30.35 28.575 30.35S35.325 27.2 35.325 22.925S32.4 15.5 28.575 15.5zM28.575 42.05C21.825 42.05 16.2 38.9 12.375 33.275V47H43.425V34.625C39.825 38.9 34.65 42.05 28.575 42.05zM95.175 28.325H56.025V95.375C56.025 96.05 56.7 96.5 56.7 96.5H129.825S130.5 95.825 130.5 95.375V31.25C127.35 37.325 120.375 41.825 113.175 41.825C104.4 42.05 97.425 36.425 95.175 28.325zM113.175 15.5C109.575 15.5 106.425 18.65 106.425 22.925S109.575 30.35 113.175 30.35S119.925 27.2 119.925 22.925C120.15 18.65 117.45 15.5 113.175 15.5zM105.75 71.75H99.675V77.825C99.675 81.425 97.2 83.9 93.6 83.9S87.525 81.425 87.525 77.825V71.75H81C77.4 71.75 74.925 69.275 74.925 65.675S77.4 59.6 81 59.6H87.075V53.525C87.075 49.925 89.55 47.45 93.15 47.45S99.225 49.925 99.225 53.525V59.6H105.75C109.35 59.6 111.825 62.075 111.825 65.675C111.825 69.5 109.35 71.75 105.75 71.75z" />
    <glyph glyph-name="agenda"
      unicode="&#xEA29;"
      horiz-adv-x="144" d="M108 128H36C29.475 128 24.075 122.6 24.075 116.075V8.075C24.075 1.55 29.475 -3.85 36 -3.85V-16L42.075 -11.275L48.15 -16V-4.075H108C114.525 -4.075 119.925 1.325 119.925 7.85V115.85C119.925 122.6 114.525 128 108 128zM96.075 116.075H108V92H96.075V116.075zM96.075 80.075H108V50.15H96.075V80.075zM83.925 8.075H36V38H83.925V8.075zM83.925 49.925H36V80.075H83.925V49.925zM83.925 92H36V116.075H83.925V92zM96.075 8.075V38H108V8.075H96.075z" />
    <glyph glyph-name="backward"
      unicode="&#xEA2A;"
      horiz-adv-x="144" d="M126 126.875C122.4 128.675 118.125 128 115.2 126.2L24.075 58.925V121.925C24.075 125.525 21.6 128 18 128S11.925 125.525 11.925 121.925V-10.15C11.925 -13.525 14.4 -16 18 -16S24.075 -13.525 24.075 -9.925V53.075L115.2 -14.2C117 -15.325 119.475 -16 121.275 -16S124.2 -15.325 126 -14.875C129.6 -13.075 132.075 -9.475 132.075 -5.2V117.875C132.075 121.475 129.6 125.075 126 126.875zM119.925 -2.275L40.275 56L119.925 114.275V-2.275z" />
    <glyph glyph-name="baloon"
      unicode="&#xEA2B;"
      horiz-adv-x="144" d="M93.825 128C82.575 128 72.225 121.475 66.375 110.675C62.1 112.475 58.05 113.6 53.325 113.6C34.2 113.6 18.675 95.15 18.675 72.425C18.675 52.625 31.275 30.575 47.925 26.525C47.25 24.725 46.8 22.925 46.125 20.45C44.325 14.375 46.125 9.2 47.25 4.25C48.375 -1.15 49.725 -4.075 47.925 -6.55C46.125 -9.475 46.8 -13.075 49.725 -14.875C50.85 -15.55 52.2 -16 52.65 -16C54.45 -16 56.25 -14.875 57.375 -13.075C62.1 -5.875 60.3 1.325 58.5 7.175C57.375 10.775 56.7 14.375 57.375 16.625C58.05 19.1 58.5 21.35 59.85 23.825C59.85 24.5 60.525 25.625 60.525 26.3C69.975 29.225 77.85 37.55 82.575 47.9C83.25 47.225 84.375 47.225 85.05 46.775C85.05 46.1 84.375 46.1 84.375 45.65C83.7000000000001 43.175 82.5750000000001 40.925 81.9 37.775C80.1 31.7 81.9 26.525 83.025 21.575C84.15 16.175 85.5 13.25 83.7 10.775C81.9 7.85 82.575 4.25 85.5 2.45C86.625 1.775 87.975 1.325 88.425 1.325C90.225 1.325 92.025 2.45 93.15 4.25C97.875 11.45 96.075 18.65 94.275 24.5C93.15 28.1 92.475 31.7 93.15 33.95C93.825 36.425 94.275 38.675 95.625 41.15C96.3 42.275 96.3 43.625 95.625 44.75C96.75 44.75 98.55 45.425 99.9 45.425C116.1 50.15 125.55 71.75 125.55 88.4C126 110.675 111.825 128 93.825 128zM53.1 37.775C41.85 37.775 30.375 55.1 30.375 72.425C30.375 88.625 40.5 101.675 53.1 101.675S75.825 88.625 75.825 72.425C75.825 55.1 65.025 37.775 53.1 37.775zM96.75 58.025C94.275 57.35 92.475 57.35 90.225 58.025C89.1 58.7 87.75 59.15 86.625 59.825C87.75 64.1 88.425 68.15 88.425 72.425C88.425 85.025 83.7 95.825 76.5 103.475C80.1 111.35 86.625 116.075 93.825 116.075C105.075 116.075 114.075 104.15 114.075 89.75S105.75 61.175 96.75 58.025z" />
    <glyph glyph-name="ban"
      unicode="&#xEA2C;"
      horiz-adv-x="144" d="M72 128C32.4 128 0 95.6 0 56S32.4 -16 72 -16S144 16.4 144 56C143.325 95.6 110.925 128 72 128zM11.925 56C11.925 89.075 38.925 116.075 72 116.075C86.4 116.075 99.675 110.675 109.8 102.35L25.875 17.525C17.325 28.325 11.925 41.6 11.925 56zM72 -4.075C57.6 -4.075 44.325 0.65 34.2 9.2L118.125 93.125C126.45 83 131.4 69.725 131.4 55.325C131.4 22.925 104.4 -4.075 72 -4.075z" />
    <glyph glyph-name="bar-chart"
      unicode="&#xEA2D;"
      horiz-adv-x="144" d="M137.925 2H126V51.725C126 57.125 121.275 61.85 115.875 61.85H94.275C88.875 61.85 84.15 57.125 84.15 51.725V2H72V76.475C72 81.875 67.275 86.15 61.875 86.15H40.275C34.875 86.15 30.15 81.875 30.15 76.475V2H12.15V116.075C12.15 119.675 9.675 122.15 6.075 122.15S0 119.675 0 116.075V-2.725C0 -6.325 3.6 -9.925 7.2 -9.925H137.925C141.525 -9.925 144 -7.45 144 -3.85C144 -0.475 141.525 2 137.925 2zM42.075 2V74H60.075V2H42.075zM96.075 2V49.925H114.075V2H96.075z" />
    <glyph glyph-name="behance-original"
      unicode="&#xEA2E;"
      horiz-adv-x="144" d="M58.05 60.725C65.925 64.55 70.2 70.175 70.2 79.175C70.2 96.725 57.15 101.225 41.85 101.225H0V12.575H42.975C59.175 12.575 74.25 20.225 74.25 38.225C74.25 49.475 68.85 57.575 58.05 60.725zM19.575 85.925H37.8C44.775 85.925 51.075 83.9 51.075 75.8C51.075 68.375 46.125 65.225 39.15 65.225H19.575V85.925zM40.275 27.65H19.575V51.95H40.725C49.275 51.95 54.675 48.35 54.675 39.35C54.675 30.35 48.15 27.65 40.275 27.65zM129.825 87.725H93.825V96.5H129.825V87.725zM144 43.625C144 62.75 132.975 78.5 112.725 78.5C93.15 78.5 79.875 63.875 79.875 44.525C79.875 24.5 92.475 10.775 112.725 10.775C128.025 10.775 137.925 17.75 142.65 32.375H127.125C125.55 26.975 118.575 24.05 113.175 24.05C102.825 24.05 97.425 30.125 97.425 40.475H143.775C144 41.375 144 42.5 144 43.625zM97.65 51.5C98.325 59.825 103.725 65.225 112.275 65.225C121.05 65.225 125.55 60.05 126.225 51.5H97.65z" />
    <glyph glyph-name="bitbucket"
      unicode="&#xEA2F;"
      horiz-adv-x="144" d="M44.55 98.75C44.55 89.075 58.275 84.8 72 84.8S99.45 89.075 99.45 98.75S85.725 112.7 72 112.7S44.55 108.425 44.55 98.75zM72 100.55C78.075 100.55 82.35 99.65 84.825 98.75C82.125 97.85 77.85 96.95 72 96.95C65.925 96.95 61.65 97.85 59.175 98.75C61.65 99.65 65.925 100.55 72 100.55zM70.875 83.45A15.075 15.075 0 1 1 70.875 53.3A15.075 15.075 0 0 1 70.875 83.45zM70.875 65.45C69.3 65.45 67.95 66.8 67.95 68.375S69.3 71.3 70.875 71.3S73.8 69.95 73.8 68.375S72.45 65.45 70.875 65.45zM120.375 120.125C108.9 125.3 83.025 128 69.075 128C55.35 128 35.325 125.3 23.625 120.125C20.7 118.775 19.125 115.85 19.35 112.7L25.2 56.9C25.425 54.425 27 52.4 29.025 51.275C34.425 48.575 53.55 39.575 68.85 39.575C84.6 39.575 106.65 43.85 116.1 51.95C117.45 53.075 118.35 54.875 118.575 56.675L124.425 112.7C125.1 115.85 123.3 118.775 120.375 120.125zM107.1 60.05C99.9 55.325 83.25 51.5 69.075 51.5C57.825 51.5 42.75 58.025 36.9 60.725L31.5 110.45C40.95 113.825 56.25 116.075 68.85 116.075C81.9 116.075 101.925 113.825 112.275 110.45L107.1 60.05zM113.4 40.025C111.375 41.6 108.675 41.825 106.2 40.7C100.575 38.225 81.675 32.375 69.075 32.6C55.575 32.825 42.975 38.45 37.575 40.7C35.325 41.825 32.4 41.375 30.375 40.025C28.35 38.45 27.225 35.975 27.45 33.275L31.275 -2.725C31.5 -5.425 33.075 -7.675 35.55 -9.025C44.775 -13.525 56.475 -16.225 68.85 -16.225C81 -16.225 98.775 -13.75 108 -9.025C110.475 -7.9 112.05 -5.425 112.275 -2.725L116.1 33.275C116.55 35.975 115.425 38.45 113.4 40.025zM100.8 0.875C93.6 -2.05 80.1 -4.075 69.075 -4.075C59.4 -4.075 50.4 -2.275 43.2 0.875L40.5 26.75C47.7 24.05 57.825 20.9 68.85 20.675C80.325 20.45 94.5 24.05 103.5 26.975L100.8 0.875z" />
    <glyph glyph-name="bitcoin"
      unicode="&#xEA30;"
      horiz-adv-x="144" d="M106.425 56C115.2 62.075 121.05 72.2 121.05 83.675C121.05 101.675 106.65 116.3 88.875 116.75V122.375C88.875 125.525 86.4 128 83.25 128S77.625 125.525 77.625 122.375V116.75H68.625V122.375C68.625 125.525 66.15 128 63 128S57.375 125.525 57.375 122.375V116.75H28.125C24.975 116.75 22.5 114.275 22.5 111.125S24.975 105.5 28.125 105.5H33.75V6.5H28.125C24.975 6.5 22.5 4.025 22.5 0.875S24.975 -4.75 28.125 -4.75H57.375V-10.375C57.375 -13.525 59.85 -16 63 -16S68.625 -13.525 68.625 -10.375V-4.75H77.625V-10.375C77.625 -13.525 80.1 -16 83.25 -16S88.875 -13.525 88.875 -10.375V-4.75C106.65 -4.3 121.05 10.325 121.05 28.325C121.275 39.8 115.425 49.925 106.425 56zM45.225 105.5H88.2C100.35 105.5 110.25 95.6 110.25 83.45S100.35 61.4 88.2 61.4H45.225V105.5zM87.975 6.5H45.225V50.375H88.2C100.35 50.375 110.25 40.475 110.25 28.325S100.125 6.5 87.975 6.5z" />
    <glyph glyph-name="blackboard"
      unicode="&#xEA31;"
      horiz-adv-x="144" d="M134.325 110H78.075V116.075C78.075 119.675 75.6 122.15 72 122.15S65.925 119.675 65.925 116.075V110H9.675C4.275 110 0 105.725 0 100.325V41.6C0 36.2 4.275 31.925 9.675 31.925H34.2L15.525 -0.925C13.725 -3.85 14.85 -7.45 18 -9.25C18.675 -9.925 19.8 -9.925 20.925 -9.925C23.4 -9.925 25.2 -8.8 26.325 -7L47.925 31.925H65.925V-4.075C65.925 -7.675 68.4 -10.15 72 -10.15S78.075 -7.675 78.075 -4.075V31.925H96.75L118.8 -7C119.925 -8.8 121.725 -9.925 124.2 -9.925C125.325 -9.925 126 -9.925 127.125 -9.25C130.05 -7.45 131.4 -3.85 129.6 -0.925L110.475 32.15H134.55C139.95 32.15 144.225 36.425 144.225 41.825V100.325C144 105.725 139.725 110 134.325 110zM132.075 44.075H11.925V98.075H131.85V44.075z" />
    <glyph glyph-name="blogger"
      unicode="&#xEA32;"
      horiz-adv-x="144" d="M143.55 66.8C142.875 69.275 141.3 71.75 139.5 72.65C138.825 72.875 135.225 73.325 131.4 73.55C124.875 73.775 124.2 74 122.175 75.125C119.025 76.925 118.125 78.95 118.125 84.575C118.125 95.15 113.625 105.05 105.075 113.825C98.775 120.125 92.025 124.4 83.925 126.875C82.125 127.55 77.85 127.55 63.675 127.775C41.4 128 36.45 127.55 28.8 124.625C14.85 119.225 4.725 107.3 1.125 92.45C0.45 89.525 0.225 85.025 0 58.925C-0.225 26.3 0 21.575 2.25 15.05C3.825 9.65 5.625 6.5 9 1.775C15.75 -7 25.65 -13.525 35.55 -15.325C40.5 -16 99 -16.225 105.075 -15.55C115.425 -14.2 123.75 -9.925 131.4 -2.05C137.025 3.575 140.4 9.875 142.65 17.975C143.55 21.35 143.775 22.925 143.775 42.95C144 57.8 144 65 143.55 66.8zM40.05 87.05C42.525 89.525 43.2 89.75 58.95 89.75C73.125 89.75 73.575 89.75 75.6 88.625C78.525 87.05 79.875 85.025 79.875 81.65C79.875 78.5 78.75 76.475 75.825 74.675C74.475 73.775 73.575 73.775 59.625 73.55C51.075 73.55 44.325 73.775 43.2 74C38.025 75.575 36.225 83.225 40.05 87.05zM101.7 22.925L96.975 22.25L72 21.8C50.175 21.575 43.875 22.025 42.75 22.475C40.5 23.375 38.25 26.3 38.025 28.775C37.575 31.025 38.925 34.4 40.725 35.975C42.975 38 44.1 38 72 38.225C100.8 38.225 100.575 38.225 103.275 35.75C107.1 31.925 106.2 25.625 101.7 22.925z" />
    <glyph glyph-name="bluetooth"
      unicode="&#xEA33;"
      horiz-adv-x="144" d="M116.325 29.225L75.825 55.775L115.65 82.325C118.575 84.125 119.925 87.05 119.925 90.875C119.925 94.475 118.125 97.4 115.65 99.425L75.15 126.65C72.225 128.45 68.625 129.125 64.8 127.325C61.875 125.525 60.075 121.925 60.075 118.325V67.025L32.85 85.025C29.925 86.825 26.325 86.15 24.3 83.225S23.175 76.7 26.1 74.675L54.45 56L27 37.1C24.075 35.3 23.4 31.7 25.2 28.55C26.325 26.75 28.125 26.075 29.925 26.075C31.05 26.075 32.4 26.75 33.525 27.2L60.075 45.2V-6.1C60.075 -9.7 61.875 -13.3 65.475 -15.1C66.6 -15.775 68.4 -16.225 70.2 -16.225S73.8 -15.55 75.6 -14.425L116.1 12.8C119.025 14.6 120.375 17.525 120.375 21.35C120.375 23.825 118.575 27.425 116.325 29.225zM72.225 114.275L107.1 90.65L72.225 67.925V114.275zM72.225 -2.725V43.625L107.1 20L72.225 -2.725z" />
    <glyph glyph-name="bold"
      unicode="&#xEA34;"
      horiz-adv-x="144" d="M97.2 62.075C108.675 66.35 115.2 77.15 115.2 90.875C115.2 101.675 112.275 110.675 103.725 117.2C96.525 125.075 86.4 128 74.925 128H24.075C20.925 128 18 125.075 18 121.925V-10.15C18 -13.75 20.925 -16.225 24.075 -16.225H82.35C94.95 -16.225 105.75 -11.95 113.625 -3.625C121.95 4.7 126.225 14.375 126.225 26.975C126 45.2 115.2 58.925 97.2 62.075zM47.925 98.075H68.4C78.075 98.075 84.6 91.55 84.6 83S78.075 67.925 68.4 67.925H47.925V98.075zM76.725 8.075H47.925V44.075H76.725C88.2 44.075 96.525 36.875 96.525 26.75C96.525 15.725 88.2 8.075 76.725 8.075z" />
    <glyph glyph-name="bolt-alt"
      unicode="&#xEA35;"
      horiz-adv-x="144" d="M52.65 -16C49.5 -16 47.025 -14.65 44.325 -12.175C40.5 -7.675 41.85 -2.725 42.525 -0.025L54.45 51.5H32.175C30.375 51.5 27 51.5 23.85 53.975C18.675 58.475 20.025 64.775 20.7 67.25L30.15 114.95C30.825 117.425 31.5 121.925 35.325 125.075C39.15 128 43.65 128 46.125 128H78.075C81.225 128 87.075 128 91.35 122.825C95.175 117.65 93.825 112.025 93.15 108.875L90.675 96.725H109.8C118.8 96.725 121.95 92.9 123.075 89.075C124.875 83.9 121.725 79.625 120.6 77.6L63.45 -9.025C62.1 -10.825 60.3 -13.525 57.15 -15.325C55.8 -15.325 54.45 -16 52.65 -16C53.325 -16 52.65 -16 52.65 -16zM32.85 64.325H71.1L57.15 4.475L110.025 84.125H75.6L81.225 111.575C81.9 113.375 81.9 114.05 81.9 114.725H44.325S43.65 112.925 43.65 112.25L32.85 64.325z" />
    <glyph glyph-name="bolt"
      unicode="&#xEA36;"
      horiz-adv-x="144" d="M56.925 -16C56.25 -16 55.125 -16 54.45 -15.325C51.975 -13.975 50.625 -11.5 50.625 -8.35L59.4 37.775H16.425C13.95 37.775 11.925 39.125 10.8 41.6C9.45 43.4 10.125 46.1 11.475 47.9L69.525 125.3C71.325 127.1 74.025 128.45 76.5 127.775C78.975 126.425 81 123.95 81 121.475V81.65H127.575C130.05 81.65 132.075 80.3 133.2 77.825C134.55 75.35 133.875 72.875 132.525 70.85L61.875 -14.2C60.75 -15.325 58.725 -16 56.925 -16zM29.025 50.15H66.825C68.625 50.15 70.65 49.475 71.775 47.675C73.125 46.325 73.575 44.525 73.125 42.725L67.5 13.025L114.075 69.275H74.475C70.65 69.275 68.175 71.75 68.175 75.575V102.575L29.025 50.15z" />
    <glyph glyph-name="book"
      unicode="&#xEA37;"
      horiz-adv-x="144" d="M117.9 103.925H35.775C33.3 103.925 29.7 104.6 29.7 109.325C29.7 112.925 32.625 115.85 36.225 115.85H119.7C123.3 115.85 125.775 118.325 125.775 121.925S123.3 128 119.7 128H36.225C26.55 128 18.225 120.125 17.55 110.675V-0.925C17.55 -9.25 24.75 -16 33.75 -16H118.35C122.625 -16 126.225 -12.4 126.225 -8.125V96.275C125.775 100.325 122.175 103.925 117.9 103.925zM113.625 -4.075H33.975C31.5 -4.075 29.7 -2.95 29.7 -1.15V93.125C31.5 92.45 33.3 92 35.775 92H113.85V-4.075zM53.775 2H89.775C93.375 2 95.85 4.475 95.85 8.075S93.375 14.15 89.775 14.15H53.775C50.175 14.15 47.7 11.675 47.7 8.075S50.175 2 53.775 2zM53.775 56H89.775C93.375 56 95.85 58.475 95.85 62.075V80.075C95.85 83.675 93.375 86.15 89.775 86.15H53.775C50.175 86.15 47.7 83.675 47.7 80.075V62.075C47.7 58.475 50.175 56 53.775 56zM59.625 74H83.7V67.925H59.625V74z" />
    <glyph glyph-name="bookmark-alt"
      unicode="&#xEA38;"
      horiz-adv-x="144" d="M132.075 80.075H65.925V101C65.925 105.725 61.65 110 56.925 110H27C22.275 110 18 105.725 18 101V80.075H11.925C5.4 80.075 0 74.675 0 68.15V14.15C0 7.4 5.4 2 11.925 2H131.85C138.375 2 143.775 7.4 143.775 13.925V67.925C144 74.675 138.6 80.075 132.075 80.075zM29.925 98.075H54V62.75L48.6 67.025L47.925 67.7C44.325 70.175 39.6 70.175 36 67.7L29.925 62.975V98.075zM11.925 13.925V67.925H18V56C18 52.4 19.8 49.475 22.725 47.675C23.85 47 25.2 46.55 27 46.55S31.275 47.225 32.4 48.35L42.075 56.225L51.75 49.025C54.675 46.55 58.275 46.55 61.425 47.9C64.35 49.7 66.15 52.625 66.15 56.225V68.15H132.075V14.15H11.925z" />
    <glyph glyph-name="bookmark"
      unicode="&#xEA39;"
      horiz-adv-x="144" d="M108.225 128H36.225C29.7 128 24.3 122.6 24.3 116.075V-3.85C24.3 -8.575 27.225 -12.85 31.5 -14.65C32.625 -15.775 34.425 -15.775 36.225 -15.775C39.15 -15.775 41.625 -14.65 44.1 -12.85L69.975 9.875C71.1 11 72.9 11 74.25 9.875L100.125 -12.85C103.725 -15.775 108.45 -17.125 112.725 -14.65C117 -12.85 119.925 -8.575 119.925 -3.85V116.075C120.15 122.6 114.75 128 108.225 128zM108.225 -3.85L82.575 18.875L81.9 19.55C76.5 23.825 68.175 23.825 62.1 19.55L36.225 -3.85V116.075H108.225V-3.85z" />
    <glyph glyph-name="bootstrap"
      unicode="&#xEA3A;"
      horiz-adv-x="144" d="M94.05 38C94.05 24.275 81.225 24.725 79.875 24.725H53.775V51.05H79.875C93.6 51.05 94.05 40.7 94.05 38zM77.85 61.625C78.075 61.625 90.225 61.4 90.225 73.325C90.225 78.275 89.1 84.8 77.85 84.8H53.775V61.625H77.85zM144 103.925V7.85C144 -5.2 133.2 -16 119.925 -16H24.075C10.8 -16 0 -5.2 0 8.075V103.925C0 117.2 10.8 128 24.075 128H120.15C133.2 128 144 117.2 144 103.925zM108.675 36.2C108.675 43.175 106.65 54.875 92.925 57.8V58.025C100.35 61.175 104.85 67.025 104.85 75.8C104.85 78.05 105.525 96.725 79.875 96.725H39.15V12.8C80.325 12.8 84.15 12.35 91.8 14.6C96.3 15.95 108.675 20.225 108.675 36.2z" />
    <glyph glyph-name="bricks"
      unicode="&#xEA3B;"
      horiz-adv-x="144" d="M132.075 62.075H120.15V80.075C120.15 86.6 114.75 92 108.225 92H36C29.475 92 24.075 86.6 24.075 80.075V62.075H11.925C5.4 62.075 0 56.675 0 50.15V32.15C0 25.4 5.4 20 11.925 20H131.85C138.375 20 143.775 25.4 143.775 31.925V49.925C144 56.675 138.6 62.075 132.075 62.075zM108 62.075H78.075V80.075H108V62.075zM90 49.925V31.925H54V49.925H90zM36 80.075H65.925V62.075H36V80.075zM11.925 49.925H41.85V31.925H11.925V49.925zM101.925 31.925V49.925H131.85V31.925H101.925z" />
    <glyph glyph-name="bridge"
      unicode="&#xEA3C;"
      horiz-adv-x="144" d="M137.925 58.925H122.85C115.65 79.85 95.175 94.925 71.775 94.925S27.45 79.85 20.7 58.925H6.075C2.475 58.925 0 56.45 0 52.85C0 49.475 2.475 47 6.075 47H18V22.925C18 19.325 20.475 16.85 24.075 16.85S30.15 19.325 30.15 22.925V42.725V47H114.075V22.925C114.075 19.325 116.55 16.85 120.15 16.85S126.225 19.325 126.225 22.925V47H138.15C141.75 47 144.225 49.475 144.225 53.075C144 56.675 141.525 58.925 137.925 58.925zM54 79.4C57.6 81.2 61.875 82.325 65.925 83V58.925H54V79.4zM78.075 82.325C82.35 81.65 86.4 80.525 90 78.725V58.925H78.075V82.325zM42.075 71.075V59.15H33.75C35.325 63.2 38.475 67.475 42.075 71.075zM101.925 58.925V70.85C105.525 67.25 108.45 63.65 110.25 58.925H101.925z" />
    <glyph glyph-name="briefcase"
      unicode="&#xEA3D;"
      horiz-adv-x="144" d="M135.675 92H100.8C97.875 102.125 87.525 110 74.925 110H68.4C55.8 110 45.675 102.125 42.525 92H8.325C3.6 92 0 88.4 0 83.675V10.55C0 5.6 3.6 2 8.325 2H136.125C140.4 2 144 5.6 144 10.325V83.675C144 88.4 140.4 92 135.675 92zM68.4 98.075H74.925C80.325 98.075 85.05 95.6 87.525 92H55.8C58.725 95.6 63 98.075 68.4 98.075zM42.075 80.075H131.85V60.275L76.05 50.15H73.575L11.925 61.4V80.075H42.075zM11.925 13.925V49.475L72 38C73.125 38 74.475 37.325 75.6 37.325S78.075 37.325 79.2 38L132.525 48.125V13.925H11.925z" />
    <glyph glyph-name="brush-alt"
      unicode="&#xEA3E;"
      horiz-adv-x="144" d="M139.725 114.5C133.65 120.575 123.975 120.575 118.125 115.175L39.825 42.275C37.35 42.275 34.425 41.6 31.5 40.475C26.1 38 23.625 33.95 21.375 30.35C18.9 26.075 16.65 22.025 8.775 17.075L0 11.45L8.325 6.725C13.05 3.8 31.275 -7.225 46.8 -7.225C51.525 -7.225 55.8 -6.1 59.4 -3.625C64.8 0.65 67.725 6.05 67.275 12.125V12.8L139.5 92.225C145.8 98.975 145.125 108.425 139.725 114.5zM52.425 6.05C47.7 2.45 33.75 6.725 22.275 12.125C26.55 16.4 28.8 20.45 30.6 23.6C32.4 26.525 33.525 28.325 34.875 29C39.15 30.8 43.2 29 43.875 29C49.275 24.725 55.35 18.2 55.35 12.125C56.025 11 55.35 8.525 52.425 6.05zM130.725 100.775L63.225 26.075C60.3 30.8 56.025 35.075 52.425 38.225L125.775 106.175C126.9 107.3 129.375 107.3 130.5 106.175C132.525 104.825 132.525 102.575 130.725 100.775z" />
    <glyph glyph-name="brush"
      unicode="&#xEA3F;"
      horiz-adv-x="144" d="M141.75 77.6L93.6 125.75C90.675 128.675 85.275 128.675 82.125 125.75L42.075 85.475C31.95 75.35 30.6 59.15 38.475 47.675L5.4 14.15C1.8 11 0 6.95 0 2S1.8 -7.675 5.4 -10.6C9 -14.2 13.275 -16 18 -16S27 -14.2 30.6 -10.6L63.675 22.475C68.4 18.875 74.475 17.075 80.55 17.075C88.425 17.075 96.075 20 102.15 26.075L142.425 66.35C144.675 69.275 144.675 74 141.75 77.6zM21.6 -2.05C19.125 -4.525 15.525 -4.525 13.725 -2.05C12.6 -0.925 11.925 0.425 11.925 2.225C11.925 3.35 12.6 5.15 13.725 6.5L46.125 39.575L54 31.7L21.6 -2.05zM67.275 34.4L50.4 51.275C43.2 58.475 43.2 69.95 50.4 77.15L55.125 81.875L97.65 39.35L92.925 34.625C85.95 27.2 74.475 27.2 67.275 34.4zM106.875 48.35L64.125 90.875L87.75 114.95L130.275 72.425L106.875 48.35zM54 62.075A6.075 6.075 0 0 1 66.15 62.075A6.075 6.075 0 0 1 54 62.075M72 44.075A6.075 6.075 0 0 1 84.15 44.075A6.075 6.075 0 0 1 72 44.075" />
    <glyph glyph-name="bubble"
      unicode="&#xEA40;"
      horiz-adv-x="144" d="M137.925 116.075H6.075C2.475 116.075 0 113.6 0 110V2C0 -0.475 1.125 -2.275 2.925 -3.4C4.05 -4.075 4.725 -4.075 5.85 -4.075S7.65 -4.075 8.775 -3.4L49.725 20H137.925C141.525 20 144 22.475 144 26.075V110C144 113.6 141.525 116.075 137.925 116.075zM132.075 31.925H47.925C46.8 31.925 46.125 31.925 45 31.25L11.925 12.125V103.925H131.85V31.925z" />
    <glyph glyph-name="bug"
      unicode="&#xEA41;"
      horiz-adv-x="144" d="M132.3 38.9H111.825C111.825 45.425 110.7 51.5 109.35 56.9L126.225 74.45C128.7 76.925 128.7 80.525 126.225 82.775C123.75 85.25 120.15 85.25 117.9 82.775L104.625 68.825C101.7 74.225 98.1 79.175 93.825 82.775C95.625 83.9 97.425 84.575 98.55 86.375C101.475 89.975 103.275 94.25 102.825 98.975C101.025 115.4 88.2 128 72 128C56.25 128 42.975 115.85 41.175 99.65C40.5 94.925 42.3 89.975 45.45 87.05C46.575 85.25 48.375 84.125 50.175 83.45C45.9 79.85 42.3 75.575 39.375 70.175L26.775 83.45C24.3 85.925 20.7 85.925 18.45 83.45C15.975 80.975 15.975 77.375 18.45 75.125L34.65 58.25C32.85 52.175 31.725 46.1 31.725 39.575H11.7C8.1 39.575 5.625 37.1 5.625 33.5S8.1 27.425 11.7 27.425H32.175C32.85 23.825 33.3 20.9 34.65 17.075L17.775 -0.925C15.3 -3.4 15.3 -7 17.775 -9.25C18.9 -10.375 20.25 -11.05 22.05 -11.05C23.85 -11.05 24.975 -10.375 26.325 -9.25L40.275 4.7C47.25 -7.675 58.725 -16 71.325 -16S96.075 -8.125 103.275 4.475L117.225 -9.925C118.35 -11.05 120.15 -11.725 121.5 -11.725C123.3 -11.725 124.425 -11.05 125.775 -9.925C128.25 -7.45 128.25 -3.85 125.775 -1.6L108.225 16.4C109.35 19.325 110.025 22.475 110.7 26.075H132.3C135.9 26.075 138.375 28.55 138.375 32.15S135.9 38.9 132.3 38.9zM72 115.85C81.675 115.85 89.55 107.975 90.675 98.3C90.675 97.175 90.675 95.825 89.55 94.7S87.075 92.9 86.625 92.9H57.6C56.475 92.9 55.125 93.575 54.675 94.025C54 95.15 53.55 96.5 53.55 97.625C54 108.2 62.325 115.85 72 115.85zM71.325 -3.4C55.575 -3.4 42.975 15.275 42.975 37.55S55.8 78.5 71.325 78.5S99.675 59.825 99.675 37.55S87.075 -3.4 71.325 -3.4z" />
    <glyph glyph-name="bulb"
      unicode="&#xEA42;"
      horiz-adv-x="144" d="M107.325 112.925C96.525 123.275 82.8 128.45 68.4 128C41.625 126.2 20.025 102.8 20.025 74.9C20.025 56.9 27.9 40.25 41.625 30.125V4.925C41.625 -6.325 50.625 -16 61.875 -16H81.675C92.475 -16 101.925 -7 101.925 4.925V29.9C115.65 40.025 123.975 56.225 123.975 74C123.3 88.625 117.9 102.8 107.325 112.925zM81 -3.4H61.2C56.475 -3.4 52.875 0.2 52.875 5.6V26.525H88.65V5.6C89.325 0.2 85.725 -3.4 81 -3.4zM92.25 38.45H77.4V55.775L90.45 65.9C92.925 67.7 93.375 71.975 91.575 74.225C89.775 76.7 85.5 77.15 83.25 75.35L77.175 70.625V80.075C77.175 83.675 74.7 86.15 71.1 86.15S65.025 83.675 65.025 80.075V69.95L56.7 75.35C53.775 77.15 50.175 76.475 48.375 73.55C46.575 70.625 47.25 67.025 50.175 65.225L65.025 55.1V38.45H50.175C38.25 46.325 31.05 60.05 31.05 74.9C31.05 96.95 47.7 114.95 68.175 116.075H70.65C80.775 116.075 90.9 111.8 98.1 104.825C105.975 96.5 110.7 85.7 110.7 74.45C111.375 59.375 104.175 46.1 92.25 38.45z" />
    <glyph glyph-name="bullhorn"
      unicode="&#xEA43;"
      horiz-adv-x="144" d="M116.55 124.625C107.1 124.625 99.225 119.9 94.5 112.7L35.325 106.85H15.075C6.525 106.85 0 100.325 0 92.45V55.325C0 49.925 2.925 45.2 7.875 42.725L15.525 -0.25C17.325 -7.45 24.525 -12.85 32.175 -12.85C37.575 -12.85 42.3 -10.375 45.9 -6.325C48.825 -2.725 50.175 2 48.825 6.275L42.75 41.6L94.05 30.35C99.225 22.475 107.55 17.75 117 17.75C131.85 17.75 144 29.675 144 44.75V98.525C143.325 112.7 131.4 124.625 116.55 124.625zM11.925 92.45C11.925 93.575 13.05 94.925 14.85 94.925H29.7V53.075H14.85C13.05 53.075 11.925 54.2 11.925 55.55V92.45zM36.45 1.1C35.325 -0.025 33.975 -0.7 32.175 -0.7C29.7 -0.7 27.9 1.1 27.45 2.225L20.25 41.15H30.375L36.9 3.575C37.125 2.9 37.125 1.55 36.45 1.1zM41.85 53.525V95.375L89.55 100.1V42.725L41.85 53.525zM131.4 44.075C131.4 35.75 124.875 29.225 116.55 29.225C108.225 29.225 101.7 35.75 101.7 44.075V97.85C101.7 106.175 108.225 112.7 116.55 112.7C124.875 112.7 131.4 106.175 131.4 97.85V44.075z" />
    <glyph glyph-name="burger"
      unicode="&#xEA44;"
      horiz-adv-x="144" d="M131.85 77.375C129.375 98.975 110.7 115.85 88.425 115.85H56.7C45.225 115.85 33.75 111.125 25.875 103.25C18 96.05 13.95 87.05 12.6 76.7C5.4 73.1 0 65.225 0 56.9V55.1C0 46.1 5.4 38.225 12.6 34.625C15.075 13.025 33.75 -3.85 56.025 -3.85H87.975C99.45 -3.85 110.925 0.875 118.8 8.75C126 15.95 130.275 24.95 131.4 34.625C139.275 38.225 144 46.1 144 55.1V56.9C144.45 65.225 139.05 73.1 131.85 77.375zM56.025 103.925H87.975C102.375 103.925 114.975 93.575 118.8 79.85H25.875C27 85.25 30.15 90.65 34.2 94.925C39.825 100.775 47.475 103.925 56.025 103.925zM88.65 7.625H56.7C41.625 7.625 29.7 17.975 25.875 31.7H119.25C118.125 26.3 114.975 20.9 110.925 16.625C104.85 10.55 96.975 7.625 88.65 7.625zM133.2 54.425C133.2 48.35 127.125 43.625 120.375 43.625H24.075C17.55 43.625 11.925 48.35 11.925 54.425V56.225C11.925 62.3 17.325 67.025 24.075 67.025H121.725C127.8 67.025 133.2 62.3 133.2 55.55V54.425z" />
    <glyph glyph-name="bus"
      unicode="&#xEA45;"
      horiz-adv-x="144" d="M47.925 23.6C56.25 23.6 63 30.125 63 38.675C63 47 56.475 53.75 47.925 53.75S32.85 47.225 32.85 38.675C33.075 30.125 39.6 23.6 47.925 23.6zM47.925 41.6C49.725 41.6 50.85 40.475 50.85 38.675S49.725 35.75 47.925 35.75S45 36.875 45 38.675S46.125 41.6 47.925 41.6zM96.075 23.6C104.4 23.6 111.15 30.125 111.15 38.675C111.15 47 104.625 53.75 96.075 53.75C87.75 53.75 81 47.225 81 38.675C81.675 30.125 88.2 23.6 96.075 23.6zM96.075 41.6C97.875 41.6 99 40.475 99 38.675S97.875 35.75 96.075 35.75S93.15 36.875 93.15 38.675C93.6 40.475 94.725 41.6 96.075 41.6zM127.125 116.075H126C126 122.6 120.6 128 114.075 128H29.925C23.4 128 18 122.6 18 116.075H16.875C14.4 116.075 12.15 114.275 12.15 111.8V101.675C12.15 99.875 14.625 98.075 16.875 98.075H18V17.075C18 12.35 22.275 8.075 27 8.075H29.925V2C29.925 -8.125 37.8 -16 47.925 -16S65.925 -8.125 65.925 2V8.075H77.85V2C77.85 -8.125 85.725 -16 95.85 -16S113.85 -8.125 113.85 2V8.075H117C121.725 8.075 126 12.35 126 17.075V98.075H127.125C129.6 98.075 131.85 99.875 131.85 102.35V111.8C132.075 114.275 129.6 116.075 127.125 116.075zM29.925 92H65.925V67.925H29.925V92zM54 2C54 -1.6 51.525 -4.075 47.925 -4.075S41.85 -1.6 41.85 2V8.075H54V2zM101.925 2C101.925 -1.6 99.45 -4.075 95.85 -4.075S89.775 -1.6 89.775 2V8.075H101.925V2zM114.075 20H30.15V56H114.075V20zM114.075 67.925H78.075V92H114.075V67.925zM114.075 103.925H29.925V116.075H113.85V103.925H114.075z" />
    <glyph glyph-name="cake"
      unicode="&#xEA46;"
      horiz-adv-x="144" d="M134.325 61.625H132.525V117.65C132.525 123.725 127.8 128 121.725 128H22.95C16.875 128 12.15 123.05 12.15 117.65V61.625H10.35C4.275 61.625 0 56.9 0 51.5V-5.65C0 -11.725 4.725 -16 10.35 -16H133.875C139.95 -16 144.225 -11.275 144.225 -5.65V51.5C144.45 56.9 139.725 61.625 134.325 61.625zM120.375 115.85V94.25C117.9 93.125 116.1 92.45 114.975 91.325C112.05 88.85 109.575 87.725 104.175 87.725S96.3 89.525 93.375 91.325C89.775 93.8 85.05 96.725 75.825 96.725S61.875 93.8 58.275 91.325C55.35 89.525 52.875 87.725 47.475 87.725S39.6 89.525 36.675 91.325C32.4 92.45 29.475 94.925 24.075 96.05V115.85H120.375zM24.075 83.45C25.875 82.775 27 81.65 28.8 80.975C32.4 78.5 37.125 75.575 46.35 75.575S60.3 78.5 63.9 80.975C66.825 82.775 69.3 84.575 74.7 84.575S82.575 82.775 85.5 80.975C89.1 78.5 93.825 75.575 103.05 75.575C111.375 75.575 115.65 78.05 119.925 80.3V61.625H24.075V83.45zM132.525 49.7V36.425C126 35.3 122.175 32.825 118.575 30.35C114.975 27.875 112.05 26.075 105.3 26.075C98.775 26.075 95.625 27.875 92.025 30.35C87.75 33.275 82.35 36.425 72.225 36.425S56.475 32.825 52.425 30.35C48.825 27.875 45.9 26.075 39.15 26.075S29.475 27.875 25.875 30.35C22.275 32.825 18.675 35.075 11.925 36.425V49.7H132.525zM12.15 -4.525V23.825C15.075 23.15 16.875 22.025 19.35 20.225C23.625 17.3 29.025 14.15 39.15 14.15S54.9 17.75 58.95 20.225C62.55 22.7 65.475 24.5 72.225 24.5S81.9 22.7 85.5 20.225C89.775 17.3 95.175 14.15 105.3 14.15S121.05 17.75 125.1 20.225C127.575 22.025 129.375 23.15 132.3 23.825V-4.525H12.15z" />
    <glyph glyph-name="calculator"
      unicode="&#xEA47;"
      horiz-adv-x="144" d="M132.075 128H11.925C5.4 128 0 122.6 0 116.075V-3.85C0 -10.6 5.4 -16 11.925 -16H131.85C138.375 -16 143.775 -10.6 143.775 -4.075V116.075C144 122.6 138.6 128 132.075 128zM132.075 62.075H78.075V116.075H132.075V62.075zM65.925 116.075V62.075H11.925V116.075H65.925zM11.925 49.925H65.925V-4.075H11.925V49.925zM78.075 -4.075V49.925H132.075V-4.075H78.075zM29.925 80.075H36V74C36 70.4 38.475 67.925 42.075 67.925S48.15 70.4 48.15 74V80.075H54C57.6 80.075 60.075 82.55 60.075 86.15S57.6 92.225 54 92.225H47.925V98.3C47.925 101.9 45.45 104.375 41.85 104.375S35.775 101.9 35.775 98.3V92H29.7C26.1 92 23.625 89.525 23.625 85.925C24.075 82.325 26.325 80.075 29.925 80.075zM96.525 89.075L91.8 84.35C89.325 81.875 89.325 78.275 91.8 76.025C92.925 74.9 94.725 74.225 96.075 74.225S99 74.9 100.35 76.025L105.075 80.75L109.8 76.025C110.925 74.9 112.725 74.225 114.075 74.225C115.2 74.225 117 74.9 118.35 76.025C120.825 78.5 120.825 82.1 118.35 84.35L113.625 89.075L118.35 93.8C120.825 96.275 120.825 99.875 118.35 102.125S112.275 104.6 110.025 102.125L105.3 97.4L100.575 102.125C98.1 104.6 94.5 104.6 92.25 102.125S89.775 96.05 92.25 93.8L96.525 89.075zM47.925 31.925H29.925C26.325 31.925 23.85 29.45 23.85 25.85S26.325 19.775 29.925 19.775H47.925C51.525 19.775 54 22.25 54 25.85C54 29.675 51.525 31.925 47.925 31.925zM118.125 36.2C115.65 38.675 112.05 38.675 109.8 36.2L91.8 18.2C89.325 15.725 89.325 12.125 91.8 9.875C92.925 8.75 94.725 8.075 96.075 8.075S99 8.75 100.35 9.875L118.35 27.875C120.6 30.125 120.6 33.725 118.125 36.2z" />
    <glyph glyph-name="calendar"
      unicode="&#xEA48;"
      horiz-adv-x="144" d="M135 98.075H78.075V105.725C81.675 107.525 84.15 111.8 84.15 115.85C83.925 122.6 78.525 128 72 128S60.075 122.6 60.075 116.075C60.075 111.8 62.55 107.75 66.15 105.95V98.075H9C4.275 98.075 0 94.475 0 89.075V-7C0 -11.725 4.275 -16 9 -16H135C139.725 -16 144 -11.725 144 -7V88.85C144 93.8 139.725 98.075 135 98.075zM132.075 -4.075H11.925V56H131.85V-4.075zM11.925 67.925V85.925H131.85V67.925H11.925zM33.075 31.925H39.15C40.95 31.925 42.075 33.05 42.075 34.85V40.925C42.075 42.725 40.95 43.85 39.15 43.85H33.075C31.275 43.85 30.15 42.725 30.15 40.925V34.85C29.925 33.275 31.275 31.925 33.075 31.925zM56.925 31.925H63C64.8 31.925 65.925 33.05 65.925 34.85V40.925C65.925 42.725 64.8 43.85 63 43.85H56.925C55.125 43.85 54 42.725 54 40.925V34.85C54 33.275 55.125 31.925 56.925 31.925zM81 31.925H87.075C88.875 31.925 90 33.05 90 34.85V40.925C90 42.725 88.875 43.85 87.075 43.85H81C79.2 43.85 78.075 42.725 78.075 40.925V34.85C78.075 33.275 79.2 31.925 81 31.925zM105.075 31.925H111.15C112.95 31.925 114.075 33.05 114.075 34.85V40.925C114.075 42.725 112.95 43.85 111.15 43.85H105.075C103.275 43.85 102.15 42.725 102.15 40.925V34.85C101.925 33.275 103.275 31.925 105.075 31.925zM33.075 8.075H39.15C40.95 8.075 42.075 9.2 42.075 11V17.075C42.075 18.875 40.95 20 39.15 20H33.075C31.275 20 30.15 18.875 30.15 17.075V11C29.925 9.2 31.275 8.075 33.075 8.075zM56.925 8.075H63C64.8 8.075 65.925 9.2 65.925 11V17.075C65.925 18.875 64.8 20 63 20H56.925C55.125 20 54 18.875 54 17.075V11C54 9.2 55.125 8.075 56.925 8.075zM81 8.075H87.075C88.875 8.075 90 9.2 90 11V17.075C90 18.875 88.875 20 87.075 20H81C79.2 20 78.075 18.875 78.075 17.075V11C78.075 9.2 79.2 8.075 81 8.075zM105.075 8.075H111.15C112.95 8.075 114.075 9.2 114.075 11V17.075C114.075 18.875 112.95 20 111.15 20H105.075C103.275 20 102.15 18.875 102.15 17.075V11C101.925 9.2 103.275 8.075 105.075 8.075z" />
    <glyph glyph-name="camera"
      unicode="&#xEA49;"
      horiz-adv-x="144" d="M142.2 83.225C140.4 85.025 137.925 86.15 135 86.15H108V95.15C108 96.95 107.325 104.15 97.875 104.15H45.675C36.675 104.15 36 96.95 36 95.15V86.15H9C4.275 86.15 0 81.875 0 77.15V17.075C0 12.35 4.275 8.075 9 8.075H135C139.725 8.075 144 12.35 144 17.075V76.7C144 78.95 143.325 81.425 142.2 83.225zM132.075 20.225H11.925V74.225H36C42.525 74.225 47.925 79.625 47.925 86.15V92.225H95.85V86.15C95.85 79.625 101.25 74.225 107.775 74.225H131.85V20.225H132.075zM69.075 74.225C57.6 74.225 48.15 64.55 48.15 53.3C48.15 41.375 57.15 32.375 69.075 32.375C80.55 32.375 90 42.05 90 53.3S80.325 74.225 69.075 74.225zM69.075 44.075C63.675 44.075 60.075 47.675 60.075 53.075C60.075 57.8 64.35 62.075 69.075 62.075S78.075 57.8 78.075 53.075C78.075 48.575 73.8 44.075 69.075 44.075zM18 62.3A6.075 6.075 0 0 1 30.15 62.3A6.075 6.075 0 0 1 18 62.3" />
    <glyph glyph-name="candy-cane"
      unicode="&#xEA4A;"
      horiz-adv-x="144" d="M130.725 96.725C112.5 114.275 83.475 114.95 65.925 97.85L5.4 39.35C1.8 36.2 0 31.475 0 27.2C0 22.25 1.8 17.525 5.4 13.925C12.6 6.5 24.3 6.5 30.825 13.25L90.675 71.975C94.275 75.575 99.675 75.575 103.275 71.975C105.075 70.175 106.875 67.7 106.875 65.225S106.2 60.95 104.4 59.15L77.4 32.6C73.8 29.675 72 24.725 72 20.45C72 15.5 73.8 10.775 77.4 7.175C81 3.575 85.95 1.775 90.675 1.775C95.625 1.775 99.675 3.575 103.275 6.725L131.175 33.95C139.725 42.5 144.45 53.3 143.775 65.4500000000001C144.45 77.375 139.725 88.175 130.725 96.725zM22.95 21.8C20.475 19.325 16.875 20 13.95 22.475C12.825 23.6 12.15 24.95 12.15 26.75C12.15 27.875 12.15 29.225 13.95 30.35L19.35 35.3L31.5 29.9L22.95 21.8zM40.5 38.675L28.35 44.075L38.7 53.75L50.85 48.35L40.5 38.675zM59.85 58.025L47.7 63.425L57.375 72.425L69.525 67.025L59.85 58.025zM96.075 15.05C93.6 12.575 90 13.25 87.075 15.725C85.95 16.85 85.275 18.65 85.275 20S85.275 22.475 87.075 23.6L88.875 24.725L101.025 19.325L96.075 15.05zM110.025 29L97.875 34.4L107.55 43.4L119.7 38L110.025 29zM127.575 47L115.425 52.4C117.9 56 119.7 60.275 119.7 65C119.7 71.075 116.775 77.15 111.825 80.75C103.275 87.95 90.675 87.5 82.8 80.075L78.525 76.25L66.375 81.65L74.925 89.525C87.525 102.125 108.9 101.675 122.625 88.4C129.375 81.65 132.975 73.775 132.975 64.775C132.975 58.7 131.175 52.625 127.575 47z" />
    <glyph glyph-name="candy"
      unicode="&#xEA4B;"
      horiz-adv-x="144" d="M139.725 105.725L121.05 124.4C118.8 126.875 115.2 128 111.6 128C108 127.325 105.075 125.525 102.6 122.6L91.125 104.6C77.4 108.875 61.2 105.275 50.625 93.8L33.75 76.925C25.875 69.05 21.825 58.25 21.825 47.45C21.825 43.175 22.5 39.575 23.625 35.975L5.625 24.5C2.7 22.7 0.9 19.1 0.225 15.5C-0.45 11.9 0.9 8.3 3.825 5.825L22.5 -12.85C24.3 -15.325 27.225 -16.45 30.375 -16.45H31.5C35.1 -15.775 38.025 -13.975 40.5 -11.05L52.425 6.95C56.025 5.825 59.625 5.15 63.9 5.15C74.7 5.15 85.5 9.425 93.375 17.075L99.45 23.15L110.25 33.95C118.125 41.825 122.175 52.625 122.175 63.425C122.175 67.7 121.5 71.3 120.375 74.9L138.375 86.375C141.3 88.175 143.775 91.775 143.775 95.375C143.325 99.875 142.2 103.475 139.725 105.725zM30.375 -3.625L11.7 15.05L27.9 25.175C29.7 22.7 31.5 20.45 33.975 18.65C36.45 16.175 38.7 14.375 41.175 12.575L30.375 -3.625zM42.3 26.75C36.9 32.15 33.3 40.025 33.3 47.675C33.3 55.325 36.225 63.2 42.3 68.6L44.775 71.075C47.25 69.95 49.5 69.275 51.3 68.6C53.775 67.925 54.9 67.925 56.7 66.125C58.5 64.325 58.5 63.2 59.175 60.725C59.85 57.8 60.3 53.525 65.25 49.25C69.525 44.975 73.575 43.85 76.725 43.175C79.2 42.5 80.325 42.5 82.125 40.7C83.925 38.9 83.925 37.775 84.6 35.3C85.275 33.5 85.275 31.025 87.075 28.775L84.6 26.3C72.675 15.05 53.775 15.05 42.3 26.75zM101.025 43.625L96.3 38.9C95.625 41.825 95.175 45.425 90.225 50.375C85.95 54.65 81.9 55.775 78.75 56.45C76.275 57.125 75.15 57.125 73.35 58.925C71.55 60.725 71.55 61.85 70.875 64.325C70.2 67.25 69.75 71.525 64.8 75.8C60.525 80.075 56.475 81.2 53.325 81.875L58.05 86.6C69.525 98.075 88.65 98.075 99.9 86.6C105.3 81.2 108.9 73.325 108.9 65.675C110.025 56.9 106.875 49.025 101.025 43.625zM115.425 87.5C113.625 89.975 111.825 92.225 110.025 94.025C107.55 96.5 105.3 98.3 102.825 100.1L112.95 116.3L131.625 97.625L115.425 87.5z" />
    <glyph glyph-name="capsule"
      unicode="&#xEA4C;"
      horiz-adv-x="144" d="M131.175 114.725C122.175 123.275 110.7 128 98.775 128S74.7 123.275 66.375 114.725L13.5 62.075C5.175 53.75 0.225 42.275 0.225 29.675C0.225 17.75 4.95 5.6 13.5 -2.725S33.975 -16 45.9 -16S69.975 -11.275 78.3 -2.725L130.5 49.475C138.825 57.8 143.775 69.95 143.775 81.875S139.5 105.725 131.175 114.725zM69.975 6.275C63.45 -0.25 54.9 -3.85 45.9 -3.85S28.575 -0.25 21.825 6.275S12.15 20.675 12.15 29.675S15.975 47 22.5 53.525L44.775 75.8L92.7 27.875L69.975 6.275zM122.175 58.475L99.9 36.2L51.975 84.125L74.25 106.4C80.775 112.925 89.325 116.525 98.325 116.525S115.65 112.925 122.4 106.4S132.525 91.325 132.525 82.325S128.7 64.325 122.175 58.475z" />
    <glyph glyph-name="car-alt"
      unicode="&#xEA4D;"
      horiz-adv-x="144" d="M29.925 40.925H47.925C51.525 40.925 54 43.4 54 47S51.525 53.075 47.925 53.075H29.925C26.325 53.075 23.85 50.6 23.85 47S26.325 40.925 29.925 40.925zM96.075 40.925H114.075C117.675 40.925 120.15 43.4 120.15 47S117.675 53.075 114.075 53.075H96.075C92.475 53.075 90 50.6 90 47S92.475 40.925 96.075 40.925zM137.925 83H133.65L123.075 111.125C121.275 116.075 117 119 111.6 119H34.2C28.8 119 24.525 116.075 22.725 111.125L11.475 83H6.075C2.475 83 0 80.525 0 76.925S2.475 70.85 6.075 70.85H6.75C6.075 70.175 6.075 69.725 6.075 69.05V24.725C6.075 20.45 9.675 16.85 13.95 16.85H18V11C18 0.875 25.875 -7 36 -7S54 0.875 54 11V17.075H90V11C90 0.875 97.875 -7 108 -7S126 0.875 126 11V17.075H130.275C132.75 17.075 134.55 18.2 136.35 19.55C137.475 20.675 138.15 23.15 138.15 24.95V69.275V71.075C141.75 71.075 144.225 73.55 144.225 77.15S141.525 83 137.925 83zM34.2 107.075H111.6L123.525 77.15H22.275L34.2 107.075zM42.075 11C42.075 7.4 39.6 4.925 36 4.925S29.925 7.4 29.925 11V17.075H42.075V11zM114.075 11C114.075 7.4 111.6 4.925 108 4.925S101.925 7.4 101.925 11V17.075H114.075V11zM126 29H18V65H126V29z" />
    <glyph glyph-name="car"
      unicode="&#xEA4E;"
      horiz-adv-x="144" d="M136.8 79.4L135 102.8C133.875 117.2 120.6 128 105.525 128H38.475C23.4 128 10.125 117.2 9 102.8L7.2 79.4C2.925 78.725 0 75.8 0 71.525V16.4C0 11.675 3.6 8.075 7.875 8.075H12.15V2.675C12.15 -5.2 16.875 -12.4 24.075 -14.65C36.675 -18.925 48.15 -9.25 48.15 2.225V8.3H96.075V2.9C96.075 -4.975 100.8 -12.175 108 -14.425C120.6 -18.7 132.075 -9.025 132.075 2.45V8.525H136.35C140.625 8.525 144.225 12.125 144.225 16.85V71.525C144 75.8 141.075 78.725 136.8 79.4zM36 2C36 -0.925 33.525 -4.075 29.925 -4.075S23.85 -1.6 23.85 2V8.075H36V2zM119.925 2C119.925 -0.925 117.45 -4.075 113.85 -4.075S107.775 -1.6 107.775 2V8.075H119.925V2zM38.925 115.85H104.85C113.85 115.85 121.725 109.775 122.175 101.45L123.975 79.85H19.8L21.6 102.125C22.275 110 29.925 115.85 38.925 115.85zM11.925 20V67.925H131.85V20H11.925zM36 61.4C26.325 61.4 18 53.525 18 44.075S25.875 26.75 36 26.75S54 34.625 54 44.075S46.125 61.4 36 61.4zM36 38C33.075 38 29.925 40.475 29.925 43.4C29.925 46.325 32.4 48.8 36 48.8C38.925 48.8 42.075 46.325 42.075 43.4C42.075 40.925 39.6 38 36 38zM108 61.85C97.875 61.85 90 53.975 90 43.85C90 34.175 97.875 25.85 108 25.85S126 33.725 126 43.85S117.675 61.85 108 61.85zM108 38C105.075 38 101.925 40.475 101.925 44.075C101.925 47 104.4 50.15 108 50.15S114.075 47.675 114.075 44.075C114.075 40.925 110.925 38 108 38zM78.075 49.925H66.15C62.55 49.925 60.075 47.45 60.075 43.85S62.55 37.775 66.15 37.775H78.075C81.675 37.775 84.15 40.25 84.15 43.85C83.925 47.45 81.675 49.925 78.075 49.925z" />
    <glyph glyph-name="caravan"
      unicode="&#xEA4F;"
      horiz-adv-x="144" d="M36 85.925H29.925C23.4 85.925 18 80.525 18 74V67.925C18 61.4 23.4 56 29.925 56H36C42.525 56 47.925 61.4 47.925 67.925V74C47.925 80.525 42.525 85.925 36 85.925zM29.925 67.925V74H36V67.925H29.925zM137.925 38H126V67.925C126 69.05 125.325 70.85 124.875 72.2L107.55 100.325C106.425 102.8 103.95 103.925 101.025 103.925H7.875C3.6 103.925 0 100.325 0 96.05V33.05C0 29.45 3.6 25.85 7.875 25.85H12.15C12.15 15.725 20.025 7.85 30.15 7.85S48.15 15.725 48.15 25.85H137.925C141.525 25.85 144 28.325 144 31.925S141.525 38 137.925 38zM29.925 20C26.325 20 23.85 22.475 23.85 26.075S26.325 32.15 29.925 32.15S36 29.675 36 26.075S33.525 20 29.925 20zM78.075 38V67.925H84.15V38H78.075zM114.075 38H96.075V71.525C96.075 76.25 92.475 79.85 87.75 79.85H74.475C69.75 79.85 66.15 76.25 66.15 71.525V38H43.2C40.275 41.6 35.325 44.075 29.925 44.075S19.8 41.6 16.875 38H11.925V92H98.325L113.85 66.8V38z" />
    <glyph glyph-name="cart-full"
      unicode="&#xEA50;"
      horiz-adv-x="144" d="M83.475 21.125C73.35 21.125 64.8 12.8 64.8 2.45S73.125 -16.225 83.475 -16.225S102.15 -7.9 102.15 2.45S93.6 21.125 83.475 21.125zM83.475 -4.075C79.875 -4.075 76.95 -1.15 76.95 2.45C76.95 6.05 79.875 8.975 83.475 8.975C87.075 8.975 90 6.05 90 2.45C90 -0.925 87.075 -4.075 83.475 -4.075zM40.275 21.125C30.15 21.125 21.6 12.8 21.6 2.45S29.925 -16.225 40.275 -16.225S58.95 -7.9 58.95 2.45S50.4 21.125 40.275 21.125zM40.275 -4.075C36.675 -4.075 33.75 -1.15 33.75 2.45C33.75 6.05 36.675 8.975 40.275 8.975S46.8 6.05 46.8 2.45C46.8 -0.925 43.875 -4.075 40.275 -4.075zM132.075 128H114.75C111.825 128 109.35 125.525 108.675 122.6L103.725 92H95.85V108.2C95.85 112.475 92.25 116.075 87.975 116.075H72C70.875 119.675 67.725 122.15 64.125 122.15H44.325C39.6 122.15 36 118.55 36 113.825V110H19.8C15.525 110 11.925 106.4 11.925 102.125V91.325C10.125 90.65 9 90.2 7.65 88.4C5.85 86.6 5.175 83.675 6.525 80.525L20.475 38C21.15 34.4 24.75 31.925 28.8 31.925H102.6C105.525 31.925 108 34.4 108.675 37.325L119.475 115.85H132.075C135.675 115.85 138.15 118.325 138.15 121.925S135.675 128 132.075 128zM83.925 92H72V103.925H83.925V92zM47.925 110H59.85V92H47.925V110zM24.075 98.075H36V92H24.075V98.075zM97.2 44.075H31.275L19.35 80.075H102.6L97.2 44.075z" />
    <glyph glyph-name="cart"
      unicode="&#xEA51;"
      horiz-adv-x="144" d="M83.475 21.125C73.35 21.125 64.8 12.8 64.8 2.45S73.125 -16.225 83.475 -16.225S102.15 -7.9 102.15 2.45S93.6 21.125 83.475 21.125zM83.475 -4.075C79.875 -4.075 76.95 -1.15 76.95 2.45C76.95 6.05 79.875 8.975 83.475 8.975C87.075 8.975 90 6.05 90 2.45C90 -0.925 87.075 -4.075 83.475 -4.075zM40.275 21.125C30.15 21.125 21.6 12.8 21.6 2.45S29.925 -16.225 40.275 -16.225S58.95 -7.9 58.95 2.45S50.4 21.125 40.275 21.125zM40.275 -4.075C36.675 -4.075 33.75 -1.15 33.75 2.45C33.75 6.05 36.675 8.975 40.275 8.975S46.8 6.05 46.8 2.45C46.8 -0.925 43.875 -4.075 40.275 -4.075zM132.075 128H114.75C111.825 128 109.35 125.525 108.675 122.6L103.725 92H14.4C11.925 92 9 90.875 7.875 89.075C6.075 87.275 5.4 84.35 6.75 81.2L20.475 38.675C21.15 34.4 24.75 32.15 28.8 32.15H102.6C105.525 32.15 108 34.625 108.675 37.55L119.475 116.075H132.075C135.675 116.075 138.15 118.55 138.15 122.15S135.675 128 132.075 128zM97.2 44.075H31.275L19.35 80.075H102.15L97.2 44.075z" />
    <glyph glyph-name="certificate"
      unicode="&#xEA52;"
      horiz-adv-x="144" d="M126.45 50.15H120.375V108.875C120.375 119 112.5 127.325 102.375 128H28.125C13.275 128 0.675 115.4 0.675 99.2V89.075C0.675 84.35 4.95 80.075 10.35 80.075H24.75V17.75C24.75 9.425 31.95 2.225 40.95 2.225H48.825V-9.25C48.825 -11.725 49.95 -13.975 52.425 -15.325C53.55 -16 54.9 -16 55.35 -16C56.475 -16 57.825 -15.325 58.95 -14.875L69.075 -8.35L80.1 -15.1C82.575 -16.225 84.825 -16.225 86.625 -15.1S89.325 -11.95 89.325 -9.475V2H125.325C135.45 2 143.325 9.875 143.325 20V31.925C144.45 42.275 136.575 50.15 126.45 50.15zM12.6 99.2C12.6 108.875 19.8 116.075 28.125 116.075H80.325C79.2 113.15 78.525 110 78.525 107.075V92H12.6V99.2zM69.525 27.425C61.2 27.425 54.45 33.95 54.45 41.825S60.975 56.225 69.525 56.225S84.6 49.7 84.6 41.825S77.85 27.425 69.525 27.425zM73.8 3.35C71.325 5.15 67.725 5.15 65.475 3.35L60.75 0.425V17.3C63.675 16.175 66.825 15.5 69.75 15.5C72.675 15.5 75.825 16.175 78.75 17.3V0.425L73.8 3.35zM90.45 14.15V25.625C94.05 30.35 96.525 35.75 96.525 41.825C96.525 56.225 84.6 68.15 69.525 68.15S42.525 56.225 42.525 41.825C42.525 35.75 45 29.9 48.6 24.95V14.15H40.725C38.25 14.15 36.45 15.95 36.45 17.75V80.075H81C86.4 80.075 90.675 84.35 90.675 89.75V107.075C90.675 111.8 94.275 116.075 97.875 116.075H101.25C105.525 116.075 108.45 113.15 108.45 108.875V14.15H90.45zM132.525 20.225C132.525 16.625 130.05 14.15 126.45 14.15H120.375V38.225H126.45C130.05 38.225 132.525 35.75 132.525 32.15V20.225z" />
    <glyph glyph-name="checkbox"
      unicode="&#xEA53;"
      horiz-adv-x="144" d="M142.2 111.35C139.725 113.825 136.125 113.825 133.875 111.35L126.675 104.15V106.625C126.675 113.825 121.275 119.225 114.075 119.225H12.825C5.4 119.225 0 113.825 0 106.625V5.375C0 -1.825 5.4 -7.225 12.6 -7.225H113.85C120.375 -7.225 126.45 -1.825 126.45 5.375V86.825L142.2 102.575C144.675 104.825 144.675 109.1 142.2 111.35zM114.525 5.375C114.525 4.7 114.525 4.7 114.525 5.375L12.6 4.7C11.925 4.7 11.925 4.7 11.925 5.375V106.625C11.925 107.3 11.925 107.3 12.6 107.3H113.85C114.525 107.3 114.525 107.3 114.525 106.625V91.55L90.9 68.15L76.95 82.1C74.475 84.575 70.875 84.575 68.625 82.1C66.15 79.625 66.15 76.025 68.625 73.775L86.625 55.1L87.75 53.975L88.425 53.3C89.1 53.3 89.55 52.625 90.9 52.625S92.7 52.625 93.375 53.3C93.375 53.3 94.05 53.3 94.05 53.975C94.725 53.975 95.175 54.65 95.175 55.1L114.525 74.45V5.375z" />
    <glyph glyph-name="checkmark-circle"
      unicode="&#xEA54;"
      horiz-adv-x="144" d="M72 128C32.4 128 0 95.6 0 56S32.4 -16 72 -16S144 16.4 144 56S111.6 128 72 128zM72 -4.075C38.925 -4.075 11.925 22.925 11.925 56S38.925 116.075 72 116.075S132.075 89.075 132.075 56S105.075 -4.075 72 -4.075zM91.8 78.275L64.125 51.275L51.525 63.2C49.05 65.675 45.45 65.675 43.2 63.2S40.725 57.125 43.2 54.875L58.275 40.475C60.075 38.675 61.875 38 63.675 38C65.475 38 67.95 38.675 69.075 40.475L99.675 69.95C102.15 72.425 102.15 76.025 99.675 78.275C97.875 80.525 94.275 80.525 91.8 78.275z" />
    <glyph glyph-name="checkmark"
      unicode="&#xEA55;"
      horiz-adv-x="144" d="M39.6 1.1C38.25 1.1 36.675 1.55 35.55 2.675L1.575 36.65C-0.675 38.9 -0.675 42.5 1.575 44.525C3.825 46.775 7.425 46.775 9.45 44.525L39.6 14.375L134.325 109.325C136.575 111.575 140.175 111.575 142.2 109.325C144.45 107.075 144.45 103.475 142.2 101.45L43.65 2.675C42.525 1.55 41.175 1.1 39.6 1.1z" />
    <glyph glyph-name="chef-hat"
      unicode="&#xEA56;"
      horiz-adv-x="144" d="M108.675 102.125C103.05 117.65 88.875 128 72.225 128S40.95 117.65 36 102.125C16.875 97.85 4.05 81.875 4.05 62.75C4.05 48.575 14.4 36.2 28.575 33.275L29.25 -6.1C29.25 -11.725 33.525 -16 39.15 -16H104.4C110.025 -16 114.3 -11.725 114.3 -6.1L115.425 33.275C129.6 36.425 139.95 48.575 139.95 62.75C139.95 81.875 126.45 97.85 108.675 102.125zM41.625 -3.625V2.45H102.6V-3.625H41.625zM110.475 44.975C106.875 44.975 103.725 41.825 103.05 37.55L102.375 14.825H40.95V37.55C40.95 41.15 37.8 44.975 33.525 44.975C24.3 45.65 16.2 53.075 16.2 62.75C16.2 76.925 26.55 88.625 40.725 90.425L45 91.1L46.125 95.375C48.6 107.075 58.95 115.625 71.325 115.625S94.5 107.75 97.65 95.375L98.775 91.1L103.05 90.425C117.225 88.625 127.8 76.25 127.8 62.75C127.8 53.525 120.375 45.65 110.475 44.975z" />
    <glyph glyph-name="chevron-down-circle"
      unicode="&#xEA57;"
      horiz-adv-x="144" d="M104.4 72.875L72 50.6L39.6 72.875C36.675 74.675 33.075 74 31.275 71.075C29.475 68.15 30.15 64.55 33.075 62.75L67.95 38.675C69.075 38 70.875 37.55 72.225 37.55C74.025 37.55 75.15 38.225 76.5 38.675L111.375 62.75C114.3 64.55 114.975 68.15 113.175 71.075C110.925 74 107.325 74.675 104.4 72.875zM72 128C32.4 128 0 95.6 0 56S32.4 -16 72 -16S144 16.4 144 56S111.6 128 72 128zM72 -4.075C38.925 -4.075 11.925 22.925 11.925 56S38.925 116.075 72 116.075S132.075 89.075 132.075 56S105.075 -4.075 72 -4.075z" />
    <glyph glyph-name="chevron-down"
      unicode="&#xEA58;"
      horiz-adv-x="144" d="M72 19.775C69.075 19.775 66.6 20.9 64.125 22.7L1.8 81.425C-0.675 83.9 -0.675 87.5 1.8 89.75C4.275 92.225 7.875 92.225 10.125 89.75L72 31.7L133.875 90.425C136.35 92.9 139.95 92.9 142.2 90.425C144.675 87.95 144.675 84.35 142.2 82.1L79.875 23.375C77.4 20.225 74.925 19.775 72 19.775z" />
    <glyph glyph-name="chevron-left-circle"
      unicode="&#xEA59;"
      horiz-adv-x="144" d="M66.6 56L88.875 88.4C90.675 91.325 90 94.925 87.075 96.725C84.15 98.525 81 97.85 79.2 95.6L55.125 60.725C53.325 58.25 53.325 54.65 55.125 51.725L79.2 16.85C80.325 15.05 82.125 14.375 83.925 14.375C85.05 14.375 86.4 15.05 87.525 15.5C90.45 17.3 91.125 20.9 89.325 23.825L66.6 56zM72 128C32.4 128 0 95.6 0 56S32.4 -16 72 -16S144 16.4 144 56S111.6 128 72 128zM72 -4.075C38.925 -4.075 11.925 22.925 11.925 56S38.925 116.075 72 116.075S132.075 89.075 132.075 56S105.075 -4.075 72 -4.075z" />
    <glyph glyph-name="chevron-left"
      unicode="&#xEA5A;"
      horiz-adv-x="144" d="M47.475 56L106.2 117.875C108.675 120.35 108.675 123.95 106.2 126.2S100.125 128.675 97.875 126.2L39.15 63.875C34.875 59.6 34.875 52.4 39.15 48.35L97.875 -13.975C99 -15.1 100.8 -15.775 102.15 -15.775C103.275 -15.775 105.075 -15.1 106.425 -13.975C108.9 -11.5 108.9 -7.9 106.425 -5.65L47.475 56z" />
    <glyph glyph-name="chevron-right-circle"
      unicode="&#xEA5B;"
      horiz-adv-x="144" d="M64.8 95.6C63 98.525 59.4 99.2 56.475 97.4C53.55 95.6 52.875 92 54.675 89.075L76.95 56.675L54.675 24.275C52.875 21.35 53.55 17.75 56.475 15.95C57.6 15.275 58.95 14.825 60.075 14.825C61.875 14.825 63.675 15.95 64.8 17.3L88.875 52.175C90.675 54.65 90.675 58.25 88.875 61.175L64.8 95.6zM72 128C32.4 128 0 95.6 0 56S32.4 -16 72 -16S144 16.4 144 56S111.6 128 72 128zM72 -4.075C38.925 -4.075 11.925 22.925 11.925 56S38.925 116.075 72 116.075S132.075 89.075 132.075 56S105.075 -4.075 72 -4.075z" />
    <glyph glyph-name="chevron-right"
      unicode="&#xEA5C;"
      horiz-adv-x="144" d="M105.3 63.875L46.35 126.2C43.875 128.675 40.275 128.675 38.025 126.2C35.55 123.725 35.55 120.125 38.025 117.875L96.3 56L37.35 -5.875C34.875 -8.35 34.875 -11.95 37.35 -14.2C38.475 -15.325 39.825 -16 41.625 -16S44.55 -15.325 45.9 -14.2L104.625 48.125C109.35 52.4 109.35 59.6 105.3 63.875z" />
    <glyph glyph-name="chevron-up-circle"
      unicode="&#xEA5D;"
      horiz-adv-x="144" d="M76.275 72.875C73.8 74.675 70.2 74.675 67.275 72.875L32.4 48.8C29.475 47 28.8 43.4 30.6 40.475C32.4 37.55 36 36.875 38.925 38.675L71.325 60.95L103.725 38.675C104.85 38 106.2 37.55 107.325 37.55C109.125 37.55 110.925 38.675 112.05 40.025C113.85 42.95 113.175 46.55 110.25 48.35L76.275 72.875zM72 128C32.4 128 0 95.6 0 56S32.4 -16 72 -16S144 16.4 144 56S111.6 128 72 128zM72 -4.075C38.925 -4.075 11.925 22.925 11.925 56S38.925 116.075 72 116.075S132.075 89.075 132.075 56S105.075 -4.075 72 -4.075z" />
    <glyph glyph-name="chevron-up"
      unicode="&#xEA5E;"
      horiz-adv-x="144" d="M6.075 20C4.275 20 3.15 20.675 1.8 21.8C-0.675 24.275 -0.675 27.875 1.8 30.125L64.125 88.85C68.4 93.125 75.6 93.125 79.65 88.85L141.975 30.125C144.45 27.65 144.45 24.05 141.975 21.8C139.5 19.325 135.9 19.325 133.65 21.8L72 79.85L10.125 21.125C9 20.45 7.875 20 6.075 20z" />
    </font>
</defs>
</svg>
